<?xml version="1.0" standalone="no"?>
<!DOCTYPE svg PUBLIC "-//W3C//DTD SVG 1.1//EN" "http://www.w3.org/Graphics/SVG/1.1/DTD/svg11.dtd" >
<svg xmlns="http://www.w3.org/2000/svg">
<metadata>Generated by IcoMoon</metadata>
<defs>
<font id="cleversoft" horiz-adv-x="1024">
<font-face units-per-em="1024" ascent="960" descent="-64" />
<missing-glyph horiz-adv-x="1024" />
<glyph unicode="&#x20;" horiz-adv-x="512" d="" />
<glyph unicode="&#xc001;" glyph-name="wishlist1" d="M832.538 746.052c22.698 0 42.5-8.026 59.48-23.98s25.518-34.99 25.518-57.010v-648.074c0-22.698-7.85-41.818-23.47-57.52s-34.822-23.47-57.52-23.47h-649.098c-22.018 0-40.962 7.85-57.010 23.47s-23.978 34.822-23.978 57.52v648.074c0 22.018 8.538 40.962 25.518 57.010s37.21 23.978 60.508 23.978v-725.050h640.054v725.052zM395.51 687.082l-118.11 107.956 162.062 23.978 71.002 140.986 73.99-140.042 161.976-20.992-115.976-110.004 29.018-153.016-144.994 71.090-144.994-73.99 26.028 154.040zM320.496 405.030v-85h384.032v85h-384.032zM320.496 234.010v-85h298.010v85h-298.010z" />
<glyph unicode="&#xc002;" glyph-name="vector1" d="M899.268 596.8l123.77 2.010v-181.642l-179.634 2.010v141.672c-26.62 14.584-54.55 24.23-83.876 28.934-29.246 4.708-58.568 6.636-87.812 6.020-29.318-0.692-58.256-6.33-86.886-16.976-28.55-10.65-55.558-23.998-80.868-39.97 1.39-2.702 2.314-4.94 3.010-7.022 0.692-1.93 1.39-4.708 2.010-8.022s1.004-5.94 1.004-8.022c0-1.93 0-4.94 0-8.95 0-10.65-2.314-21.91-7.022-33.874s-11.036-21.606-18.982-28.934c-8.022-7.33-17.668-13.654-28.934-18.982-11.266-5.25-22.916-7.33-34.95-5.942-1.39-1.39-3.010-1.698-5.012-1.004-2.010 0.614-4.012 0.614-6.020 0-2.010-0.77-3.622-0.386-4.94 1.004-1.31 1.31-2.702 1.31-4.012 0-6.636-10.73-12.344-22.302-16.976-34.95-4.708-12.654-8.642-24.924-11.958-36.962-3.318-11.958-5.632-24.924-7.022-38.886-1.31-14.044-2.010-27.006-2.010-38.966 0-13.27 0.692-25.926 2.010-37.888 1.39-11.958 4.012-24.614 8.022-37.888 4.012-13.35 8.334-26.004 12.964-37.888 4.63-11.958 10.262-25.312 16.976-39.97l139.742 1.93v-181.642l-179.714 1.93v125.774c-6.636 10.65-13.27 22.61-19.908 35.958-6.636 13.27-12.964 29.246-18.982 47.918-6.020 18.596-10.956 37.5-14.97 56.87-4.012 19.212-6.020 40.896-6.020 64.816 0 9.26 0.31 19.986 1.004 31.942 0.612 11.958 2.010 23.302 3.936 33.874 2.010 10.73 4.708 21.99 8.022 33.952 3.318 11.884 7.022 22.61 11.036 31.87l-155.716-151.628c2.7-5.326 4.32-9.028 5.014-11.034 0.612-2.010 1.62-4.938 3.010-8.948s2.010-7.716 2.010-11.034 0-7.020 0-11.034c0-11.958-2.314-23.692-6.944-34.876-4.708-11.266-11.034-20.912-18.982-28.934s-17.284-14.662-27.932-19.986c-10.73-5.326-22.612-7.33-35.958-6.020-11.958-1.31-23.612 0.692-34.95 6.020-11.266 5.25-20.912 11.958-28.934 19.986s-14.352 17.668-18.982 28.934c-4.708 11.266-6.946 22.916-6.946 34.876 0 13.27 2.314 24.924 6.946 34.95 4.708 9.954 11.036 19.6 18.982 28.934 8.022 9.26 17.67 15.972 28.934 19.908 11.266 4.010 22.916 6.708 34.95 8.022 4.010-1.31 7.33-1.93 9.954-1.93s5.632-0.692 8.948-2.010c3.318-1.31 6.636-1.93 9.954-1.93s6.33-1.39 9.028-4.010l203.556 205.564c-1.39 2.702-2.010 4.322-2.010 5.012 0 0.612 0 2.932 0 6.944 0 13.348 2.314 25.31 6.944 35.958 4.708 10.65 11.036 20.294 18.982 28.934 8.022 8.642 17.668 14.97 28.934 18.982s22.916 6.636 34.95 8.022c1.462-1.156 2.774-1.462 4.090-0.772s2.626 0.692 4.012 0c1.31-0.692 2.626-0.692 4.012 0 1.31 0.692 2.626 0.31 4.012-1.004l233.496 235.502c-1.31 1.31-2.238 4.010-2.932 8.022s-1.39 7.252-2.010 9.954c-0.692 2.626-1.31 5.632-1.93 8.948s-1.004 6.33-1.004 8.948c0 13.27 2.238 25.312 6.946 35.958s11.266 20.294 19.986 28.934 18.288 14.97 28.934 18.982c10.65 3.936 21.99 6.636 33.952 7.948 13.27-1.31 25.23-4.012 35.88-7.948 10.73-4.010 20.37-10.34 28.934-18.982 8.64-8.642 15.278-18.286 19.986-28.934s7.020-22.612 7.020-35.958c0-11.958-2.316-23.612-7.020-34.95s-11.266-20.678-19.986-27.932c-8.566-7.33-18.212-13.654-28.934-18.982-10.65-5.324-22.61-7.33-35.88-6.020-2.702-1.31-6.020-1.62-10.030-1.004s-7.638 1.31-11.034 2.010c-3.318 0.77-6.25 1.774-8.948 3.086-2.626 1.31-5.942 2.7-9.954 4.010l-153.712-153.71c10.65 2.702 21.22 6.020 31.87 9.954 10.73 4.012 21.606 6.636 33.028 8.022 11.266 1.31 22.996 2.702 34.95 4.012 11.884 1.31 23.302 1.31 33.874 0 18.596 1.31 36.962 0.31 54.864-3.010 17.98-3.318 35.65-6.944 52.932-10.956 17.362-4.012 34.26-9.954 50.928-17.978 16.59-8.022 32.948-16.664 48.918-25.926v-2.010zM90.828 175.64c4.010 1.39 8.022 2.702 11.958 4.010 4.010 1.39 7.33 3.702 9.954 7.020s4.63 6.25 6.020 8.948c1.31 2.702 2.010 7.33 2.010 14.044 0 2.626-0.692 5.942-2.010 9.954-1.39 4.010-3.318 7.020-6.020 8.948-2.7 2.010-6.020 4.322-9.954 7.020-4.010 2.626-8.022 3.318-11.958 2.010-4.010 1.31-7.716 0.614-10.956-2.010-3.318-2.702-6.71-4.938-9.954-7.020-3.318-1.93-5.71-4.938-7.022-8.948s-2.010-7.33-2.010-9.954c0-6.708 0.692-11.266 2.010-14.044s3.622-5.632 7.022-8.948c3.238-3.318 6.636-5.632 9.954-7.020 3.238-1.31 6.944-2.702 10.956-4.010zM420.156 477.038c4.012 1.31 8.022 2.314 11.958 3.010s7.33 2.932 9.954 6.944c2.702 4.012 4.708 7.33 6.020 10.030 1.39 2.626 2.010 6.636 2.010 11.958 0 2.626-0.612 6.25-2.010 10.956-1.31 4.708-3.318 8.022-6.020 10.030-2.626 1.93-5.94 4.012-9.954 5.94-4.012 2.010-8.022 2.314-11.958 1.078-4.012 1.31-8.022 1.004-11.958-1.078-4.012-1.93-7.33-4.012-9.954-5.94-2.702-2.010-4.708-5.324-6.020-10.030s-2.084-8.334-2.084-10.956c0-5.324 0.692-9.334 2.010-11.958 1.31-2.702 3.318-6.020 6.020-10.030s6.020-6.25 9.954-6.944 8.022-1.774 12.036-3.010zM422.166 57.89v-61.966l59.878 2.010v57.872l-59.878 2.082zM751.576 900.204c-4.010-1.31-7.716-2.314-11.034-3.010s-6.33-3.010-8.948-7.020c-2.702-3.936-5.092-7.252-7.020-9.954-2.010-2.7-3.010-6.636-3.010-11.958 0-2.7 1.004-6.33 3.010-10.956 1.93-4.708 4.322-8.022 7.020-9.954 2.626-2.010 5.632-4.010 8.948-6.020s7.020-2.314 11.034-1.004c5.25-1.39 9.646-1.004 12.966 1.004s6.33 4.010 8.948 6.020 4.938 5.326 7.020 9.954c1.93 4.708 2.932 8.256 2.932 10.956 0 5.326-1.004 9.334-2.932 11.958-2.010 2.7-4.398 6.020-7.020 9.954s-5.632 6.33-8.948 7.022c-3.318 0.612-7.716 1.698-12.966 3.010zM963.080 478.97v57.95l-59.804 1.93v-61.884l59.804 2.010z" />
<glyph unicode="&#xc003;" glyph-name="user" d="M512.069 960c-282.417 0-512.069-229.652-512.069-512.069 0-282.279 229.652-511.931 512.069-511.931 282.279 0 511.931 229.652 511.931 511.931 0 282.417-229.652 512.069-511.931 512.069zM512.069-14.818c-84.725 0-167.245 23.144-239.434 66.94 2.342 130.049 108.834 235.163 239.434 235.163s237.092-105.114 239.434-235.025c-72.326-43.933-154.847-67.078-239.434-67.078zM798.204 84.786c-18.047 143.137-139.141 251.695-286.136 251.695-147.132 0-268.227-108.558-286.273-251.709-111.038 87.494-176.614 221.525-176.614 363.146 0 255.277 207.611 462.887 462.887 462.887 255.153 0 462.749-207.611 462.749-462.887 0-141.607-65.575-275.652-176.614-363.132zM665.537 613.524c0 3.995-1.378 12.674-1.928 15.98-13.914 67.229-73.704 116.273-145.617 119.166-2.053 0.138-3.995 0.138-5.924 0.138-82.245 0-149.337-64.612-152.643-147.545 0-74.944 59.39-218.494 152.643-218.494 93.542 0 153.193 143.964 153.193 218.494 0 0 0.413 9.092 0.275 12.261zM512.069 431.951c-47.928 0-103.323 102.221-103.323 168.348 2.204 55.67 47.391 99.19 102.91 99.328l4.408-0.138c53.453-2.204 96.986-45.737 99.052-99.328l0.138-1.928c-1.791-67.229-56.621-166.281-103.185-166.281z" />
<glyph unicode="&#xc004;" glyph-name="user-5" d="M512 255.949c158.824 0 287.973 157.905 287.973 352.004 0 194.016-129.149 352.004-287.973 352.004-78.325 0-151.467-37.533-205.97-105.743-52.997-66.121-82.086-153.642-82.086-246.261 0-194.099 129.232-352.004 288.057-352.004zM512 895.927c123.549 0 224.026-129.149 224.026-287.973 0-158.741-100.477-287.973-224.026-287.973-123.464 0-224.026 129.149-224.026 287.973 0 158.741 100.477 287.973 224.026 287.973zM735.942 319.98c-17.638 0-32.016-14.377-32.016-32.016 0-17.721 14.377-32.016 32.016-32.016 123.632 0 224.026-100.561 224.026-224.026 0-17.638-14.377-32.016-32.016-32.016h-831.989c-17.638 0-32.016 14.377-32.016 32.016 0 123.464 100.561 224.026 224.026 224.026 17.721 0 32.016 14.294 32.016 32.016 0 17.638-14.294 32.016-32.016 32.016-158.824 0-287.973-129.232-287.973-287.973 0-52.997 43.050-95.964 95.964-95.964h831.989c52.997 0 95.964 43.050 95.964 95.964 0.083 158.741-129.066 287.973-287.973 287.973z" />
<glyph unicode="&#xc005;" glyph-name="user-4" d="M930.81-64h-837.56c-50.611 0-91.742 41.13-91.742 91.742l3.14 73.517c76.41 160.825 194.813 195.060 199.8 196.475l8.497 1.17h59.847c48.334 0 87.74 39.406 87.74 87.74v28.446c-23.644 30.417-41.253 63.358-52.397 98.146l-2.34 7.142c-36.389 33.126-45.502 86.816-22.474 128.685 0.616 1.354 2.34 4.125 4.249 6.958l-0.185 34.357c-0.061 23.028-0.061 45.994 0.247 68.96 1.786 43.655 13.668 82.137 34.234 112.246 24.321 36.389 64.958 64.035 111.322 75.733 45.378 11.576 95.251 12.684 144.016 3.448 43.593-8.312 80.967-27.769 107.997-56.277 31.895-33.742 50.12-83.060 51.351-138.906 0.247-25.122 0.185-49.812 0.185-74.44l-0.123-25.306c0.985-1.354 1.539-2.586 2.278-3.817 24.136-38.421 17.794-93.712-15.578-127.023l-5.234-4.803c-13.115-41.5-31.279-76.349-54.552-106.396v-27.153c0-48.334 39.406-87.74 87.74-87.74l68.283-1.17c4.987-1.417 123.39-35.65 199.8-196.475l3.079-13.731v-59.847c0.061-50.55-41.068-91.681-91.619-91.681zM65.359 80.262v-52.521c0-15.454 12.5-27.954 27.892-27.954h837.56c15.393 0 27.954 12.5 27.954 27.954v52.521c-56.954 114.954-135.335 148.634-152.637 154.914h-54.799c-83.552 0-151.528 67.975-151.528 151.528v50.12l7.45 8.928c22.72 26.969 39.899 59.539 51.166 96.606 1.97 12.314 12.5 21.427 17.548 25.737 14.716 14.531 17.24 36.758 8.004 51.659-4.433 6.404-11.821 16.747-11.083 31.463v29.985c0 24.443 0 49.011-0.185 73.393-0.924 39.591-12.93 73.825-33.987 95.991-22.351 23.705-52.336 33.495-73.578 37.436-39.652 7.696-79.921 6.712-116.371-2.524-31.279-7.882-58.247-25.983-74.071-49.627-13.976-20.504-21.919-47.472-23.336-78.319-0.247-21.797-0.247-44.393-0.185-67.052v-39.037c1.724-12.93-6.342-24.69-10.282-30.417-10.529-18.902-6.28-42.054 7.635-53.445 12.5-8.559 16.871-23.397 19.272-31.463 10.775-33.864 26.969-62.803 49.072-89.279l7.45-8.928v-51.29c0-83.552-67.975-151.528-151.528-151.528h-54.799c-17.548-6.28-95.805-39.899-152.637-154.853z" />
<glyph unicode="&#xc006;" glyph-name="user-3" d="M512 463.096c-136.995 0-248.452 111.458-248.452 248.452s111.458 248.452 248.452 248.452 248.452-111.458 248.452-248.452-111.458-248.452-248.452-248.452zM512 897.101c-102.312 0-185.553-83.241-185.553-185.553s83.241-185.553 185.553-185.553c102.318 0 185.553 83.241 185.553 185.553s-83.235 185.553-185.553 185.553zM904.491-64h-784.983c-17.366 0-31.45 14.077-31.45 31.45 0 233.765 190.176 423.941 423.941 423.941s423.941-190.176 423.941-423.941c0-17.373-14.077-31.45-31.45-31.45zM152.317-1.101h719.373c-15.989 184.408-171.206 329.592-359.689 329.592s-343.694-145.184-359.683-329.592z" />
<glyph unicode="&#xc007;" glyph-name="user-2" d="M511.999 301.718c151.864 0 255.984 110.070 255.984 255.984v146.315c0 145.913-104.051 255.984-255.984 255.984s-255.984-110.070-255.984-255.984v-146.315c0-145.913 104.051-255.984 255.984-255.984zM329.172 704.015c0 102.781 75.899 182.826 182.826 182.826s182.826-80.112 182.826-182.826v-146.315c0-102.781-75.965-182.826-182.826-182.826-106.927 0-182.826 80.112-182.826 182.826v146.315zM771.727 411.922l-9.094 3.009-4.413-8.158c-9.295-16.851-20.529-33.168-33.168-48.548l-10.498-12.572 16.049-4.413c118.229-32.566 212.852-215.928 217.733-332.417h-872.67c4.882 116.489 88.738 299.784 206.9 332.417l16.116 4.413-10.365 12.572c-12.839 15.514-24.007 31.83-33.234 48.615l-4.548 8.158-8.961-3.076c-148.053-49.084-241.538-252.975-241.538-403.033v-72.89h1023.932v72.89c0 150.059-104.253 353.95-252.238 403.033z" />
<glyph unicode="&#xc008;" glyph-name="user-1" d="M674.288 385.684c88.836 54.662 148.38 152.42 148.38 264.044 0 171.083-139.375 310.271-310.667 310.271s-310.667-139.188-310.667-310.271c0-111.625 59.544-209.383 148.38-264.044-191.821-42.972-326.423-160.357-326.423-302.414 0-116.25 307.209-147.271 488.708-147.271s488.708 31.021 488.708 147.271c0 142.058-134.602 259.443-326.423 302.414zM265.335 649.73c0 135.792 110.667 246.271 246.667 246.271s246.667-110.48 246.667-246.271-110.667-246.251-246.667-246.251-246.667 110.459-246.667 246.251zM512.001 0c-260.907 0-417.084 55.039-424.691 83.487 0.198 141.171 190.646 255.992 424.691 255.992 234.021 0 424.454-114.8 424.688-255.951-7.417-28.427-163.609-83.528-424.688-83.528z" />
<glyph unicode="&#xc009;" glyph-name="up" horiz-adv-x="1088" d="M-0.007 205.325l543.551 543.368 544.464-543.489-57.899-57.899-486.564 487.782-486.687-487.782-56.863 58.021z" />
<glyph unicode="&#xc010;" glyph-name="play-2" d="M0 960l1024-512-1024-512v1024z" />
<glyph unicode="&#xc011;" glyph-name="tablet-1" d="M963.134 27.736c0-13.356-2.262-25.324-7.006-35.906-4.598-10.655-10.655-20.289-17.953-28.9s-15.983-14.961-25.908-18.975-20.945-6.641-32.914-7.955l-734.704 1.97c-11.969-1.387-22.916 0.657-32.914 5.984s-18.61 11.604-25.908 18.975c-7.371 7.371-13.356 16.931-17.953 28.9-4.671 11.969-7.006 23.209-7.006 33.936v844.396c0 10.655 2.262 21.967 7.006 33.936 4.598 11.969 10.582 21.675 17.953 28.973 7.298 7.298 15.983 13.647 25.908 18.975 9.998 5.254 20.945 7.298 32.914 5.984l734.631 1.97c11.969-1.387 22.916-4.014 32.914-7.955s18.61-10.363 25.908-18.975c7.371-8.685 13.356-18.318 17.953-28.973 4.671-10.655 7.006-22.624 7.006-35.906v-840.454zM901.246 880.16c-1.387 4.014-2.992 7.006-4.963 8.977s-4.671 4.306-7.955 7.006c-3.357 2.7-6.349 3.284-8.977 1.97l-734.704 1.97c-2.627-1.314-5.619-2.627-8.977-3.941s-5.984-3.722-7.955-7.006c-1.97-3.357-3.649-6.349-4.963-8.977-1.387-2.7-2.044-6.641-2.044-11.969v-840.454c0-5.328 0.657-9.342 1.97-11.969 1.314-2.7 2.992-5.693 4.963-8.977 1.97-3.357 4.671-5.619 7.955-7.006 3.284-1.314 6.276-2.627 8.977-4.014l734.631 1.97c2.627-1.314 5.619-0.657 8.977 1.97 3.284 2.627 5.984 4.963 7.955 7.006s3.649 4.963 4.963 8.977c1.314 4.014 1.97 7.298 1.97 9.998v844.468c0.145 2.627-0.51 5.984-1.825 9.998zM843.372 840.24v-664.716l-662.745 1.97v660.775l662.745 1.97zM783.527 237.34v542.982l-542.982-1.97v-538.968l542.982-2.044zM553.927 69.701c-2.7-5.328-5.984-10.363-9.998-14.961s-8.685-7.59-13.939-8.977c-5.328-1.387-11.312-2.627-17.953-4.014-6.714 1.387-12.699 2.627-17.953 4.014-5.328 1.387-9.998 4.379-14.012 8.977s-7.298 9.633-9.998 14.961-4.014 11.312-4.014 17.953c0 5.328 1.314 10.947 4.014 16.931s5.984 10.655 9.998 14.012c4.014 3.284 8.685 6.641 14.012 9.998 5.254 3.284 11.239 4.306 17.953 2.992 6.641 1.314 12.626 0.292 17.953-2.992 5.328-3.357 9.998-6.714 13.939-9.998 4.014-3.357 7.298-8.028 9.998-14.012 2.627-5.984 4.014-11.604 4.014-16.931-0.073-6.641-1.387-12.626-4.014-17.953z" />
<glyph unicode="&#xc012;" glyph-name="support" d="M943.937 597.936c10.71-1.382 21.075-4.664 31.007-10.019 10.019-5.354 18.742-12.006 25.997-19.951 7.427-8.033 12.955-17.014 17.014-26.947 4.059-10.019 6.046-20.989 6.046-32.993v-240.108c0-13.301-2.331-25.307-7.082-35.93-4.75-10.71-10.968-20.037-19.001-27.984-8.033-8.033-17.62-14.683-29.020-20.037-11.4-5.268-23.060-7.945-34.98-7.945h-89.997v61.926h-59.941v299.963h59.941v60.027h36.016c-13.301 45.344-32.389 86.37-57.004 122.991s-52.945 68.318-84.988 95.007c-32.043 26.689-67.282 47.331-105.975 62.014-38.78 14.683-78.769 22.024-120.14 22.024s-81.274-7.341-119.882-22.024-74.018-35.326-106.063-61.926c-32.043-26.689-60.373-58.386-84.988-95.007-24.701-36.707-43.703-77.647-57.004-122.991h36.016v-60.027h59.941v-300.049h-59.941v-62.014h-64c3.973-16.064 10.278-31.353 19.001-46.036s19.693-27.638 32.993-38.952 27.984-19.951 43.963-25.997c16.064-6.046 33.338-8.983 52.082-8.983h164.017c2.677 9.329 6.65 17.62 12.006 25.047 5.354 7.255 11.66 13.647 19.001 18.915 7.255 5.354 15.719 9.329 24.961 12.092 9.329 2.591 18.742 3.973 27.984 3.973h179.995c13.301 0 25.393-2.331 36.103-6.91 10.624-4.75 19.865-11.056 27.984-19.087 7.945-7.945 14.683-17.36 19.865-27.984 5.354-10.624 8.119-22.716 8.119-35.93 0-12.092-2.677-23.752-8.119-35.066-5.268-11.314-12.006-20.901-19.865-29.020-8.119-7.945-17.36-14.337-27.984-19.001-10.71-4.664-22.802-6.996-36.103-6.996h-179.995c-9.241 0-18.656 1.382-27.984 4.059-9.241 2.677-17.706 6.91-24.961 12.955-7.341 5.96-13.733 12.61-19.001 19.951s-9.329 14.943-12.006 23.060h-164.017c-26.689 0-52.082 5.010-76.005 15.029-24.011 9.933-45.344 23.32-64 39.99-18.742 16.582-34.030 36.275-46.036 59.077-12.006 22.628-19.347 47.244-22.024 73.846-8.033 2.677-15.719 7.082-22.974 13.042-7.341 5.96-13.387 12.61-17.966 19.951-4.664 7.255-8.377 15.374-10.968 23.924-2.677 8.723-3.973 17.706-3.973 26.947v240.108c0 12.006 1.987 22.974 5.96 32.993s9.673 19.001 17.014 26.947 15.892 14.683 25.911 20.037c10.019 5.354 20.297 8.637 31.007 10.019 14.683 53.377 36.016 102.348 64 147.001s60.977 82.655 98.979 114.008c38.003 31.265 79.978 55.968 126.014 74.018s93.711 27.034 143.028 27.034c49.317 0 96.994-8.983 143.028-26.947s88.097-42.753 126.014-74.018c37.917-31.353 70.995-69.356 98.979-114.008s49.317-93.711 64-147.088zM119.881 237.946v299.963h-30.057c-3.973 0-7.687-0.692-10.968-1.987-3.369-1.296-6.65-3.283-10.019-5.96-3.283-2.677-5.7-6.046-6.996-10.019s-1.987-8.033-1.987-12.006v-240.108c0-3.887 0.604-7.945 1.987-12.006 1.296-3.973 3.627-7.255 6.996-9.933s6.65-4.75 10.019-6.046c3.369-1.296 6.996-1.899 10.968-1.899h30.057zM511.914 55.878c-3.973 0-7.945-0.692-12.006-1.899-4.059-1.382-7.341-3.369-9.933-6.046-2.677-2.677-4.75-5.96-6.046-9.933-1.382-4.059-1.987-8.119-1.987-12.006 0-4.059 0.692-7.773 1.987-11.056 1.382-3.369 3.369-6.65 6.046-10.019 2.591-3.369 5.874-5.614 9.933-6.91 4.059-1.382 8.033-1.987 12.006-1.987h179.995c4.059 0 8.119 0.692 12.092 1.987s7.341 3.541 10.019 6.91c2.591 3.369 4.664 6.65 5.874 10.019 1.382 3.283 1.987 6.996 1.987 11.056 0 3.887-0.692 7.945-1.987 12.006-1.296 3.973-3.283 7.255-5.874 9.933-2.677 2.677-6.046 4.75-10.019 6.046s-8.033 1.899-12.092 1.899h-179.995zM963.974 267.83v240.108c0 3.973-0.692 8.033-1.987 12.006-1.382 3.973-3.715 7.255-6.996 10.019-3.283 2.677-6.65 4.664-10.019 5.96-3.283 1.296-6.91 1.987-10.968 1.987h-30.057v-300.049h30.057c4.059 0 7.687 0.692 10.968 1.899 3.369 1.382 6.738 3.369 10.019 6.046s5.614 5.96 6.996 9.933c1.296 4.232 1.987 8.205 1.987 12.092z" />
<glyph unicode="&#xc013;" glyph-name="search-5" d="M581.832 926.201c51.617-21.811 95.982-51.274 133.039-88.33 37.8-37.8 67.661-82.506 89.416-134.124 22.553-51.617 33.801-105.804 33.801-162.503 0-48.705-7.993-95.24-23.981-139.548-15.989-45.050-38.541-85.818-67.661-122.134l263.909-263.909c8.736-8.736 13.077-19.641 13.077-32.718s-4.339-23.981-13.077-32.718c-8.679-9.479-19.585-14.217-32.602-14.217-13.077 0-24.381 4.741-33.861 14.161l-263.909 263.909c-36.372-29.064-76.682-51.617-121.048-67.606-44.309-15.989-90.842-24.039-139.548-24.039-56.698 0-111.228 10.905-163.588 32.718-51.617 22.553-95.982 52.36-133.039 89.416-37.057 37.8-66.92 82.45-89.416 134.124-21.869 51.673-32.776 105.804-32.776 162.558s10.905 110.885 32.718 162.503c22.553 51.617 52.36 96.325 89.416 134.124 37.057 37.057 81.422 66.52 133.039 88.33 52.36 22.553 106.888 33.801 163.588 33.801s110.885-11.248 162.503-33.801zM292.858 841.181c-40.712-17.472-75.656-40.768-104.719-69.832-29.12-29.064-52.016-63.608-68.69-103.576-17.416-40.025-26.152-82.222-26.152-126.531s8.736-86.504 26.152-126.472c16.672-39.969 39.57-74.569 68.69-103.576 29.064-29.12 63.95-52.36 104.663-69.832 39.969-17.472 82.108-26.152 126.472-26.152 43.624 0 85.761 8.679 126.531 26.152 39.969 17.472 74.513 40.712 103.576 69.832 29.064 29.064 52.36 63.608 69.774 103.576 16.729 39.969 25.065 82.108 25.065 126.472s-8.336 86.561-25.065 126.531c-17.416 39.969-40.712 74.513-69.774 103.576-29.12 29.064-63.608 52.36-103.576 69.832-40.654 17.416-82.849 26.152-126.472 26.152-44.365 0-86.504-8.736-126.472-26.152z" />
<glyph unicode="&#xc014;" glyph-name="search-4" d="M756.408 261.792c57.946 72.812 93.056 178.142 93.056 279.296 0 233.874-189.402 418.912-418.912 418.912-229.573 0-418.976-185.036-418.976-418.912s189.402-418.912 418.976-418.912c97.546 0 185.036 35.679 256.015 93.119l256.015-279.296 69.84 69.84-256.015 255.952zM430.552 215.296c-178.204 0-325.854 144.17-325.854 325.792s147.588 325.792 325.854 325.792c178.268 0 325.854-144.233 325.854-325.792 0-181.622-147.651-325.792-325.854-325.792z" />
<glyph unicode="&#xc015;" glyph-name="search-3" d="M595.042 959.999c-236.5 0-428.916-192.416-428.916-428.937 0-106.762 39.458-204.31 104.226-279.461l-260.976-260.976c-12.499-12.499-12.499-32.75 0-45.25 6.25-6.25 14.417-9.375 22.625-9.375s16.375 3.125 22.625 9.375l260.974 260.974c75.145-64.768 172.69-104.224 279.442-104.224 236.541 0 428.958 192.416 428.958 428.937s-192.416 428.937-428.958 428.937zM595.042 166.126c-201.208 0-364.916 163.708-364.916 364.937s163.708 364.937 364.916 364.937c201.25 0 364.958-163.708 364.958-364.937s-163.708-364.937-364.958-364.937z" />
<glyph unicode="&#xc016;" glyph-name="search-2" d="M1016.502-20.292l-411.734 411.734c116.356 135.039 110.507 339.735-17.533 467.775-64.976 64.976-151.379 100.784-243.297 100.784-91.914 0-178.339-35.808-243.315-100.784-134.161-134.161-134.161-352.474 0-486.635 64.976-64.999 151.401-100.784 243.318-100.784 83.387 0 162.227 29.438 224.639 83.429l411.709-411.731c4.996-4.996 11.546-7.495 18.095-7.495s13.121 2.498 18.118 7.495c9.993 10.015 9.993 26.22 0 36.213zM551.045 408.794c-55.323-55.321-128.872-85.772-207.107-85.772-78.233 0-151.784 30.451-207.105 85.772-114.198 114.198-114.198 300.011 0 414.209 55.321 55.321 128.872 85.795 207.105 85.795s151.784-30.474 207.107-85.795c114.198-114.198 114.198-300.011 0-414.209z" />
<glyph unicode="&#xc017;" glyph-name="search-1" d="M1022.769-31.498l-232.303 233.792c166.782 186.14 153.38 472.052-32.761 640.323s-472.052 153.38-640.323-32.761-153.38-472.052 32.761-640.323c172.738-156.358 436.313-156.358 609.051 0l233.792-233.792 29.782 32.761zM453.924 98.056c-224.858 0-408.020 183.162-408.020 408.020 0 226.347 183.162 408.020 408.020 408.020s408.020-183.162 408.020-408.020c0-224.858-183.162-408.020-408.020-408.020zM453.924 853.041v-44.674c166.782 0 302.292-135.51 302.292-302.292h44.674c0 192.097-154.869 346.966-346.966 346.966z" />
<glyph unicode="&#xc018;" glyph-name="youtube-2" d="M509.763 67.914c0 0 0 0 0 0-8.943 0-259.354 4.472-335.371 8.943-4.472 0-8.943 0-13.415 0-26.83 4.472-71.546 8.943-107.319 49.187-31.302 35.773-44.716 107.319-44.716 111.791s-8.943 84.961-8.943 169.921v76.017c0 84.961 8.943 165.45 8.943 169.921 0 8.943 13.415 80.489 44.716 116.262 40.245 44.716 84.961 49.187 107.319 49.187h4.472c138.62 8.943 344.314 8.943 348.786 8.943s210.166 0 344.314-8.943h4.472c22.358 0 67.074-4.472 107.319-49.187 31.302-35.773 44.716-107.319 44.716-111.791s8.943-84.961 8.943-169.921v-76.017c0-84.961-8.943-165.45-8.943-169.921 0-8.943-13.415-80.489-44.716-116.262-40.245-44.716-84.961-49.187-107.319-49.187h-4.472c-138.62-8.943-348.786-8.943-348.786-8.943zM509.763 792.315c-4.472 0-205.695 0-344.314-8.943h-4.472c-17.887 0-49.187-4.472-80.489-35.773-17.887-26.83-26.83-76.017-31.302-93.904 0 0-8.943-80.489-8.943-160.978v-76.017c0-80.489 8.943-160.978 8.943-165.45 4.472-17.887 13.415-67.074 31.302-89.432 26.83-26.83 58.131-31.302 80.489-35.773 4.472 0 8.943 0 13.415 0 76.017-8.943 321.956-8.943 330.899-8.943 4.472 0 210.166 0 344.314 8.943h4.472c17.887 0 49.187 4.472 76.017 35.773 22.358 22.358 31.302 71.546 31.302 89.432 0 0 8.943 80.489 8.943 160.978v76.017c0 80.489-8.943 160.978-8.943 165.45-4.472 17.887-13.415 67.074-31.302 89.432-26.83 31.302-58.131 35.773-80.489 35.773h-4.472c-129.676 13.415-330.899 13.415-335.371 13.415zM406.917 295.966c-4.472 0-8.943 0-13.415 4.472-8.943 4.472-8.943 13.415-8.943 17.887v286.184c0 8.943 4.472 13.415 8.943 17.887 8.943 8.943 17.887 8.943 26.83 4.472l263.825-143.091c8.943-4.472 13.415-13.415 13.415-17.887 0-8.943-4.472-17.887-13.415-17.887l-263.825-147.563c-4.472-4.472-8.943-4.472-13.415-4.472zM429.274 568.734v-214.637l196.751 107.319-196.751 107.319z" />
<glyph unicode="&#xc019;" glyph-name="refresh-1" horiz-adv-x="1184" d="M95.331 341.579c13.701-33.549 32.438-62.95 56.061-88.128s51.47-44.953 83.537-59.469c32.067-14.514 66.356-21.772 103.014-21.772v-68.725c-45.768 0-88.869 9.184-129.303 27.474s-75.538 43.101-105.31 74.427c-29.698 31.252-53.396 67.836-70.949 109.828-17.627 41.991-26.364 86.574-26.364 133.971 0 47.174 8.74 91.832 26.291 133.822 17.551 41.916 41.25 78.649 70.949 109.828 29.77 31.252 64.874 56.137 105.31 74.427s83.537 27.549 129.303 27.549h290.75l-112.124 112.049 48.064 48.064 196.846-196.77-196.846-194.549-48.064 48.064 112.198 112.124h-290.823c-36.584 0-70.949-7.258-103.014-21.7-31.993-14.589-59.838-33.993-83.463-58.358-23.624-24.44-42.36-53.468-56.061-87.018s-20.589-69.466-20.589-107.531c0-38.213 6.888-74.058 20.589-107.607zM846.129 723.792c36.584 0 70.949-7.258 103.014-21.7 32.067-14.514 59.913-33.993 83.537-58.358 23.624-24.44 42.36-53.468 56.137-87.018 13.701-33.549 20.514-69.466 20.514-107.531 0-38.213-6.888-74.058-20.514-107.607-13.773-33.549-32.438-62.95-56.137-88.128-23.624-25.181-51.47-44.953-83.537-59.469s-66.356-21.772-103.014-21.772h-290.75l112.198 114.419-48.064 48.064-196.846-196.846 196.846-196.77 48.064 50.359-112.198 112.124h290.75c45.768 0 88.869 9.184 129.303 27.474s75.538 43.101 105.31 74.427c29.698 31.252 53.396 67.836 70.949 109.828 17.551 41.916 26.291 86.574 26.291 133.971 0 47.25-8.74 91.832-26.291 133.896-17.551 41.916-41.25 78.649-70.949 109.828-29.77 31.252-64.874 56.137-105.31 74.427s-83.537 27.402-129.303 27.402v-71.021z" />
<glyph unicode="&#xc020;" glyph-name="eye-1" horiz-adv-x="1216" d="M1173.668 473.464c-2.328 2.947-59.15 74.181-156.425 145.73-130.073 95.498-271.612 146.043-409.205 146.043-137.746 0-279.293-50.46-409.281-146.043-97.279-71.552-154.103-142.782-156.425-145.73l-20.152-25.426 20.152-25.503c2.325-2.949 59.144-74.181 156.425-145.73 130.073-95.498 271.541-146.043 409.281-146.043 137.589 0 279.209 50.46 409.205 146.043 97.284 71.544 154.024 142.782 156.425 145.73l20.152 25.503-20.152 25.426zM966.781 341.616c-80.462-58.753-207.976-128.754-358.742-128.754-150.845 0-278.433 69.996-358.82 128.754-55.194 40.383-96.584 81.085-120.149 106.428 23.562 25.265 64.959 66.119 120.149 106.349 80.462 58.76 207.974 128.754 358.895 128.754 150.77 0 278.282-69.996 358.742-128.754 55.187-40.383 96.506-81.079 120.149-106.349-23.649-25.344-65.039-66.119-120.228-106.428v0zM766.442 447.961c0-87.513-70.888-158.402-158.337-158.402-83.984 0-152.577 65.207-158.046 147.728 0 0.063-0.022 0.124-0.022 0.188-0.084 1.002-0.147 2.027-0.211 3.029-0.022 0.352-0.041 0.709-0.041 1.066-0.041 0.753-0.084 1.524-0.104 2.295-2.989 84.569 61.301 157.067 146.371 163.452 87.345 6.558 163.353-58.816 169.906-146.097 0.213-2.736 0.332-5.451 0.394-8.144 0-0.253 0-0.501 0.022-0.753 0.045-1.462 0.064-2.902 0.064-4.367z" />
<glyph unicode="&#xc021;" glyph-name="eye-2" horiz-adv-x="1152" d="M1101.32 496.523c-11.639 13.707-24.152 26.655-36.010 38.405-69.085 67.996-143.171 124.784-224.985 167.214-58.748 30.245-116.3 50.261-172.002 60.271-33.618 6.092-64.405 7.615-91.604 7.615-28.394 0-59.836-1.524-93.345-7.615-56.356-10.443-113.905-30.353-171.892-60.271-79.745-41.015-154.378-97.478-225.094-167.214-13.707-13.492-25.565-25.894-36.118-38.405-24.37-28.938-24.37-66.799 0-95.737 28.83-34.269 67.452-70.281 115.757-108.685 102.917-82.029 203.77-134.031 302.444-155.466 34.706-7.399 70.933-10.663 108.141-10.663 36.118 0 71.587 3.156 106.4 10.663 99.872 21.542 201.050 73.218 303.641 155.466 51.568 41.233 88.993 78.003 114.669 108.685 24.806 29.591 25.022 66.365 0 95.737zM1051.711 443.321c-25.894-31.878-61.796-64.949-106.4-100.416-93.126-74.523-184.732-122.827-275.898-141.867-33.618-6.855-64.405-9.464-92.801-9.464h-1.632c-28.938 0-59.184 2.611-91.604 9.464-89.863 19.147-182.337 66.255-277.095 141.867-44.713 35.575-79.745 69.085-105.202 100.416-4.136 2.937-4.136 6.528 0 10.663 3.047 4.136 8.16 10.12 15.339 17.734 7.508 7.831 13.055 13.598 15.991 17.080 68.54 67.343 138.495 118.256 209.099 153.616 56.464 28.394 107.488 47.108 153.616 54.94 26.655 4.568 53.852 7.071 81.595 7.071 26.655 0 53.201-2.284 80.942-7.071 46.672-8.051 97.914-26.762 153.616-54.94 71.912-36.229 141.215-86.817 207.903-153.616 15.449-15.339 26.218-26.981 32.529-34.813 3.156-3.916 2.937-7.723 0-10.663zM576.607 623.92c-48.488 0-90.444-17.022-124.855-51.525-34.595-34.32-51.525-75.907-51.525-124.302 0-48.488 16.93-89.617 51.525-123.935 34.411-34.135 76.459-51.065 124.855-51.065s89.431 17.022 123.383 51.065c34.503 34.411 51.617 75.355 51.617 123.935 0 48.396-17.205 89.8-51.617 124.395-34.043 34.411-74.987 51.432-123.383 51.432zM661.073 363.077c-23.462-23.462-51.525-34.963-84.464-34.963-33.491 0-61.922 12.052-85.476 35.516-23.462 23.462-35.423 51.892-35.423 84.464 0 33.399 11.961 61.463 35.423 84.924s51.984 35.516 85.476 35.516 61.369-12.144 84.464-35.516c23.371-23.645 34.963-51.525 34.963-84.924 0-32.939-11.5-61.463-34.963-85.016z" />
<glyph unicode="&#xc022;" glyph-name="eye-3" d="M1008.005 448.003c0-12.563-3.72-25.298-11.077-38.192-51.666-84.817-121.19-152.853-208.405-203.941-87.297-51.172-179.47-76.718-276.522-76.718s-189.225 25.711-276.522 76.964c-87.297 51.255-156.737 119.206-208.405 203.693-7.357 12.896-11.079 25.711-11.079 38.192 0 12.483 3.637 25.296 11.079 38.192 51.666 84.485 121.108 152.44 208.405 203.693s179.47 76.962 276.522 76.962 189.225-25.709 276.522-76.962c87.299-51.336 156.737-119.206 208.405-203.693 7.359-12.896 11.077-25.626 11.077-38.19v0zM937.076 448.003c-56.132 87.132-126.398 152.271-210.885 195.426 22.402-38.357 33.73-79.938 33.73-124.58 0-68.284-24.304-126.731-72.829-175.256s-106.889-72.746-175.173-72.746-126.646 24.223-175.173 72.746c-48.527 48.521-72.829 106.887-72.829 175.256 0 44.64 11.243 86.14 33.73 124.578-84.404-43.152-154.837-108.377-210.885-195.426 49.104-75.722 110.611-135.905 184.678-180.71 73.986-44.805 154.093-67.209 240.481-67.209s166.578 22.403 240.481 67.209c74.069 44.805 135.576 104.988 184.676 180.71l-0.002 0.002z" />
<glyph unicode="&#xc023;" glyph-name="eye-4" d="M512 772.108c-218.803 0-407.383-128.984-494.010-315.115-2.66-5.64-2.66-12.238 0-17.985 86.629-186.131 275.207-315.115 494.010-315.115s407.383 128.984 494.010 315.115c2.66 5.64 2.66 12.238 0 17.985-86.629 186.132-275.206 315.115-494.010 315.115zM512 224.354c-123.556 0-223.592 100.145-223.592 223.593 0 123.556 100.143 223.592 223.592 223.592 123.556 0 223.592-100.143 223.592-223.592s-100.143-223.593-223.592-223.593zM655.137 448.053c0-79.053-64.084-143.137-143.137-143.137s-143.137 64.084-143.137 143.137c0 79.053 64.084 143.137 143.137 143.137s143.137-64.084 143.137-143.137z" />
<glyph unicode="&#xc024;" glyph-name="prev" d="M740.425-63.999l-511.455 511.512 511.512 512.487 54.549-54.492-459.083-457.995 459.083-458.052-54.607-53.461z" />
<glyph unicode="&#xc025;" glyph-name="plus" d="M564.796 496.601h459.204v-95.975h-459.204v-464.012h-105.591v464.012h-459.204v95.975h459.204v462.785h105.49v-462.785z" />
<glyph unicode="&#xc026;" glyph-name="pin" d="M362.857 256.513l-318.438-320.514-44.381 44.381 320.514 318.514 42.305-42.381zM890.971 542.723l-223.753-318.438 26.229-66.534-94.685-94.685-471.735 471.657 94.762 94.685 66.534-26.152 318.438 223.753 16.153 52.38 24.152 80.61 376.895-376.895-132.99-40.382zM675.295 845.086l-10.152-34.305-6-22.153-360.819-253.904-62.456 24.152-22.153-24.152 384.971-384.971 24.152 22.153-12.075 32.229-12.075 30.306 20.152 26.229 233.829 334.591 22.153 6.077 34.228 10.076-233.752 233.676z" />
<glyph unicode="&#xc027;" glyph-name="picture" d="M0.001 959.999h1024v-1024h-1024v1024zM67.929 210.092h888.143v681.9h-888.143v-681.9zM956.073 3.927v135.936h-888.143v-135.936h888.143zM901.715 334.759l-215.291 208.386-90.544-97.449-176.804 314.882-294.487-428.2 56.66-38.487 231.082 337.577 169.899-299.090 106.494 113.32 165.377-160.852 47.613 49.915z" />
<glyph unicode="&#xc028;" glyph-name="phone-6" d="M994.601 192.279l-148.050 148.050c-19.802 19.802-46.487 30.707-74.877 30.707-29.626 0-57.549-11.68-78.744-32.874l-57.627-57.549c-44.787 24.906-104.27 59.096-165.994 120.821s-95.915 121.054-120.9 166.072l57.627 57.627c42.929 42.929 43.78 111.849 2.011 153.618l-148.050 148.126c-19.802 19.878-46.487 30.864-74.953 30.864-28.93 0-56.312-11.139-77.351-31.404-12.763-10.209-76.5-66.522-100.247-182.624-33.26-162.513 43.162-318.839 263.998-539.754 246.516-246.516 457.142-265.699 515.696-265.699 12.222 0 19.648 0.773 21.582 1.006 114.943 13.46 156.094 64.511 186.26 101.794 38.83 48.344 38.675 111.849-0.387 151.22zM945.483 80.973c-28.233-35.040-54.996-68.145-144.105-78.588-0.154 0-4.95-0.62-14.233-0.62-52.522 0-241.488 17.79-470.832 247.059-203.586 203.586-274.981 343.36-246.594 482.127 20.731 101.252 75.804 144.336 77.892 145.961l1.856 1.393 1.701 1.701c9.206 9.206 21.195 14.233 33.88 14.233 11.526 0 22.199-4.332 30.013-12.143l147.972-148.126c17.017-17.017 16.090-45.636-2.011-63.815l-65.207-65.129-1.083-1.16c-17.017-18.718-15.007-44.013-5.647-60.488 26.996-48.73 64.047-115.485 135.21-186.725 70.93-71.008 137.607-107.982 186.183-134.9 4.874-2.785 14.929-7.348 27.459-7.348 14.929 0 28.543 6.265 38.675 17.714l61.184 61.184c9.128 9.128 21.117 14.233 33.801 14.233 11.449 0 22.122-4.408 30.013-12.143l147.894-147.894c18.797-18.951 11.216-47.725-4.021-66.522zM620.454 802.035c54.533-6.265 118.811-39.372 163.674-84.235 45.327-45.25 78.588-110.225 84.622-165.453 1.624-16.243 15.394-28.387 31.404-28.387 1.238 0 2.243 0.077 3.481 0.233 17.404 1.856 30.090 17.558 28.079 35.040-7.581 69.77-46.797 147.739-102.567 203.509-55.305 55.229-132.502 94.522-201.499 102.412-17.404 2.011-33.107-10.52-35.118-27.923s10.442-33.184 27.923-35.194zM590.752 668.916c29.47-3.403 70.389-25.293 97.152-52.057 27.072-26.996 48.963-68.223 52.135-98.082 1.78-16.321 15.547-28.387 31.56-28.387 1.238 0 2.243 0.077 3.481 0.154 17.558 1.856 30.090 17.637 28.156 35.040-5.492 50.975-39.372 105.119-70.389 136.214-30.707 30.786-84.466 64.433-134.823 70.235-17.481 2.011-33.26-10.52-35.194-27.923-2.011-17.404 10.442-33.184 27.923-35.194z" />
<glyph unicode="&#xc029;" glyph-name="phone-5" d="M974.953 706.378l-204.559 204.559c-65.358 65.418-171.793 65.418-237.21 0l-484.075-484.133c-65.418-65.418-65.418-171.85 0-237.21l204.559-204.559c32.65-32.65 75.598-49.034 118.546-49.034s85.897 16.325 118.605 49.034l356.751 356.751c9.011 9.011 9.011 23.581 0 32.65-8.952 8.952-23.581 8.952-32.591 0l-298.005-297.945-331.181 331.181c-9.011 8.952-23.581 8.952-32.591 0-9.011-9.011-9.011-23.581 0-32.65l331.181-331.181-26.214-26.154c-22.996-22.996-53.539-35.634-86.013-35.634s-63.018 12.697-85.956 35.634l-204.618 204.501c-22.996 23.054-35.634 53.598-35.634 86.013 0 32.532 12.638 63.077 35.634 86.013l439.137 439.195 392.912-392.853c0.527-0.585 1.112-1.17 1.697-1.58 4.212-3.453 9.362-5.15 14.57-5.15 5.15 0 10.298 1.697 14.512 5.15 0.585 0.468 1.229 1.054 1.755 1.58l28.671 28.671c65.475 65.358 65.475 171.735 0.117 237.151zM942.303 501.819l-12.346-12.404-376.645 376.586 12.464 12.346c22.936 22.996 53.481 35.634 86.013 35.634 32.416 0 62.96-12.638 85.956-35.634l204.559-204.559c22.996-22.996 35.634-53.539 35.634-86.013s-12.638-63.018-35.634-85.956zM785.489 744.529c-6.086 0-11.995-2.457-16.267-6.729-4.272-4.33-6.729-10.24-6.729-16.325s2.457-11.995 6.729-16.267c4.272-4.33 10.24-6.729 16.267-6.729s11.995 2.457 16.325 6.729c4.272 4.272 6.729 10.24 6.729 16.267 0 6.086-2.457 11.995-6.729 16.325-4.33 4.272-10.298 6.729-16.325 6.729zM271.164 116.162c5.909 0 11.819 2.224 16.325 6.729 9.011 8.952 9.011 23.521 0 32.591l-68.051 67.933c-9.011 9.011-23.581 9.011-32.591 0s-9.011-23.581 0-32.591l67.991-67.991c4.505-4.446 10.416-6.671 16.325-6.671z" />
<glyph unicode="&#xc030;" glyph-name="phone-4" d="M378.755 781.93c55.284 0 100.265-44.981 100.265-100.265 0-19.066 15.425-34.553 34.553-34.553s34.491 15.425 34.491 34.553c0 93.355-75.893 169.309-169.248 169.309-19.066 0-34.553-15.425-34.553-34.553s15.425-34.491 34.491-34.491zM378.755 890.956c115.443 0 209.291-93.848 209.291-209.23 0-19.066 15.425-34.553 34.491-34.553 19.127 0 34.491 15.425 34.491 34.553-0.061 153.451-124.823 278.274-278.274 278.274-19.066 0-34.553-15.425-34.553-34.553s15.487-34.491 34.553-34.491zM947.766 138.26l-236.872 236.995c-6.479 6.417-15.302 10.058-24.434 10.058-9.194 0-17.955-3.641-24.434-10.058l-104.276-104.461c-27.21 19.005-54.791 42.204-80.643 68.057s-48.991 53.372-67.995 80.643l104.337 104.337c13.451 13.513 13.451 35.355 0 48.806l-236.934 236.934c-6.479 6.479-15.24 10.119-24.434 10.119-9.132 0-17.955-3.641-24.372-10.119l-118.467-118.467c-45.906-45.906-46.585-127.475-1.974-229.591 40.229-92.121 113.408-193.928 206.022-286.542s194.36-165.791 286.542-206.022c50.348-21.965 95.637-32.949 134.139-32.949 39.675 0 72.191 11.6 95.452 34.923l118.405 118.467c13.513 13.513 13.513 35.355-0.061 48.867zM252.081 736.333l188.128-188.128-69.6-69.6-188.128 188.128 69.6 69.6zM627.412 32.196c-84.408 36.959-178.626 104.893-265.316 191.583s-154.748 180.908-191.583 265.316c-20.917 48.004-29.987 89.344-26.779 118.714l177.886-177.823c24.928-46.77 61.701-94.959 106.682-139.939 44.919-44.919 93.231-81.693 139.939-106.682l177.823-177.947c-29.37-3.208-70.71 5.862-118.652 26.779zM804.989 44.165l-188.19 188.128 69.723 69.661 188.128-188.128-69.661-69.661z" />
<glyph unicode="&#xc031;" glyph-name="phone-3" horiz-adv-x="1280" d="M1174.063 767.932c-115.693 95.931-351.699 130.117-534.052 130.117s-418.358-34.177-534.052-130.117c-102.399-84.933-89.768-256.584-89.167-263.868 0.673-7.804 5.867-14.639 13.375-17.241 2.898-1.040 73.343-25.637 212.001-25.637 11.151 0 20.139 8.988 20.139 20.139s-9.068 20.211-20.211 20.211c-98.235 0-160.51 12.927-185.699 19.466-0.673 39.829 3.785 156.786 75.272 216.010 107.377 89.095 332.977 120.825 508.342 120.825 175.293 0 400.965-31.729 508.271-120.825 71.262-59.072 75.864-176.182 75.272-216.010-25.19-6.539-87.462-19.466-185.619-19.466-11.070 0-20.139-9.068-20.139-20.139s8.988-20.139 20.139-20.139c138.514 0 208.951 24.597 211.929 25.637 7.58 2.601 12.703 9.437 13.375 17.314 0.521 7.131 13.232 178.783-89.167 263.716zM640.010 597.544c-114.661 0-207.991-93.258-207.991-207.92s93.258-207.991 207.991-207.991 207.92 93.33 207.92 207.991c0 114.661-93.258 207.92-207.92 207.92zM640.010 221.841c-92.441 0-167.713 75.352-167.713 167.784s75.272 167.713 167.713 167.713c92.514 0 167.642-75.272 167.642-167.713s-75.199-167.784-167.642-167.784zM707.481 409.773c-11.070 0-20.139-9.142-20.139-20.139 0-26.159-21.251-47.481-47.409-47.481s-47.409 21.323-47.409 47.481 21.323 47.257 47.481 47.257c11.151 0 20.139 9.068 20.139 20.211 0 11.070-8.988 20.139-20.139 20.139-48.297 0-87.607-39.309-87.607-87.607s39.309-87.687 87.607-87.687 87.607 39.309 87.607 87.687c0 10.998-8.988 20.139-20.139 20.139zM1000.404 418.466c-13.448 17.537-25.117 52.46-25.117 74.528v118.151c0 35.147-26.086 71.63-59.296 83.076-3.418 1.185-86.047 28.984-275.979 28.984s-272.633-27.79-276.059-28.984c-33.218-11.447-59.224-47.929-59.224-83.005v-118.151c0-22.068-11.742-56.99-25.117-74.528l-87.086-114.805c-18.649-24.526-33.361-67.916-33.361-98.829v-138.587c0-37.595 30.689-68.365 68.436-68.365h824.823c37.676 0 68.436 30.761 68.436 68.365v138.587c0 30.913-14.712 74.312-33.361 98.829l-87.086 114.733zM1080.582 66.246c0-15.385-12.63-28.158-28.158-28.158h-824.823c-15.528 0-28.158 12.783-28.158 28.158v138.434c0 22.22 11.742 57.071 25.117 74.752l87.086 114.661c18.649 24.526 33.361 68.068 33.361 98.9v118.151c0 18.058 15.008 39.085 32.025 45.032 0.816 0.224 80.996 26.75 262.98 26.75s262.164-26.526 262.899-26.75c17.089-5.947 32.177-26.975 32.177-45.032v-118.151c0-30.913 14.639-74.383 33.29-98.9l87.166-114.661c13.375-17.69 25.117-52.532 25.117-74.607v-138.587h-0.072z" />
<glyph unicode="&#xc032;" glyph-name="phone-2" d="M704.531-64c-7.546 0-15.214 0.742-22.802 2.206-0.39 0.032-0.817 0.087-1.276 0.189-5.73 0.969-70.738 12.443-159.556 47.958-116.003 46.383-215.029 110.125-294.333 189.455-153.536 153.534-205.269 350.68-220.434 428.758-2.946 9.716-4.641 19.86-5.039 30.157-0.15 1.467-0.195 2.753-0.136 4.003-0.199 32.691 12.351 63.348 35.355 86.352l64.1 64.106c5.268 5.266 12.266 8.166 19.706 8.166 7.333 0 14.517-2.977 19.708-8.166l207.412-207.412c10.866-10.868 10.866-28.55 0-39.416l-64.043-64.043c-1.82-1.888-3.619-3.598-5.4-5.124-27.010-23.961-32.214-66.162-12.004-98.067 20.939-33.067 44.784-63.060 70.872-89.152 30.588-30.645 67.068-58.484 108.433-82.751 11.758-6.898 25.23-10.543 38.961-10.543 21.835 0 42.531 8.797 58.289 24.769l0.861 0.926 64.106 64.043c5.216 5.293 12.235 8.239 19.712 8.239 7.467 0 14.491-2.932 19.783-8.261l207.388-207.327c10.811-10.896 10.811-28.587 0.022-39.455l-64.122-64.122c-23.012-22.892-53.393-35.483-85.563-35.487v0zM691.162-6.871c4.374-0.894 8.84-1.349 13.275-1.349 17.418-0.002 33.796 6.786 46.123 19.109l44.333 44.335-167.998 167.996-44.94-44.936c-25.879-26.295-61.605-41.397-97.982-41.399-23.635-0.002-46.856 6.307-67.154 18.249-45.064 26.431-85.312 57.166-119.622 91.356-29.074 29.133-55.497 62.353-78.55 98.754-34.717 54.744-25.196 127.712 22.15 169.725l0.156 0.134c0.906 0.764 1.82 1.678 2.704 2.562l44.4 44.398-167.88 167.996-44.39-44.394c-12.635-12.579-19.405-29.428-19.082-47.456v-0.63c0.169-6.091 1.184-12.097 3.013-17.847 0.246-0.735 0.626-1.871 0.857-3.249 14.025-72.987 62.084-257.94 205.405-401.262 71.922-71.898 162.738-130.518 269.921-174.235 82.256-33.548 145.395-45.993 153.223-47.466 0.644-0.089 1.365-0.228 2.040-0.392zM871.042 389.431c-15.37 0.002-27.874 12.534-27.874 27.937 0 201.804-164.18 365.987-365.983 365.987-15.37 0-27.874 12.505-27.874 27.874s12.505 27.874 27.874 27.874c232.545 0 421.734-189.189 421.734-421.736 0.041-7.4-2.834-14.411-8.095-19.704-5.279-5.311-12.302-8.233-19.781-8.233v0zM995.197 389.432c-15.401 0-27.935 12.53-27.935 27.935 0 268.436-218.384 486.822-486.818 486.822-15.37 0-27.874 12.505-27.874 27.874 0 15.403 12.505 27.935 27.874 27.935 299.209 0 542.628-243.423 542.628-542.632-0.087-15.425-12.591-27.935-27.874-27.935zM747.306 389.432c-15.37 0-27.872 12.53-27.872 27.935 0 133.513-108.646 242.131-242.192 242.131-15.37 0-27.874 12.505-27.874 27.874 0 15.403 12.477 27.935 27.815 27.935 164.284 0 297.939-133.627 297.939-297.882 0.041-7.436-2.842-14.482-8.119-19.789-5.264-5.291-12.26-8.206-19.696-8.206z" />
<glyph unicode="&#xc033;" glyph-name="phone-1" d="M735.931 959.999h-447.93c-52.792 0-96.035-43.174-96.035-96.035v-831.93c0-52.792 43.243-96.035 96.035-96.035h447.999c52.861 0 96.035 43.243 96.035 96.035v831.93c-0.069 52.861-43.243 96.035-96.104 96.035zM383.966 911.982h255.931v-32.035h-255.931v32.035zM511.966 0.001c-35.355 0-64 28.645-64 64 0 35.424 28.645 64.069 64 64.069s64-28.645 64-64.069c0-35.355-28.645-64-64-64zM767.966 192h-511.999v639.999h511.999v-639.999z" />
<glyph unicode="&#xc034;" glyph-name="next" d="M283.531 959.999l511.484-511.542-511.484-512.458-54.546 54.489 459.057 457.97-459.057 458.027 54.546 53.515z" />
<glyph unicode="&#xc035;" glyph-name="minus" d="M1024 495.992v-95.985h-1024v95.985h1024z" />
<glyph unicode="&#xc036;" glyph-name="grid-2" horiz-adv-x="1088" d="M174.031 960c-84.952 0-154.051-69.099-154.051-154.051 0-84.892 69.099-153.991 154.051-153.991s154.051 69.099 154.051 153.991c0 85.009-69.099 154.051-154.051 154.051zM174.031 726.225c-44.015 0-79.841 35.827-79.841 79.783 0 44.073 35.827 79.841 79.841 79.841s79.783-35.768 79.783-79.841c0-44.073-35.768-79.783-79.783-79.783zM544.030 960c-84.952 0-154.051-69.099-154.051-154.051 0-84.892 69.099-153.991 154.051-153.991 85.009 0 153.991 69.099 153.991 153.991 0 85.009-68.983 154.051-153.991 154.051zM544.030 726.225c-44.015 0-79.783 35.827-79.783 79.783 0 44.073 35.768 79.841 79.783 79.841s79.841-35.768 79.841-79.841c0-44.073-35.827-79.783-79.841-79.783zM914.029 651.958c84.892 0 153.991 69.099 153.991 153.991 0 84.952-69.099 154.051-153.991 154.051-85.009 0-154.051-69.099-154.051-154.051 0-84.892 69.041-153.991 154.051-153.991zM914.029 885.792c43.956 0 79.783-35.768 79.783-79.841 0-43.956-35.827-79.783-79.783-79.783-44.015 0-79.841 35.827-79.841 79.783 0 44.073 35.827 79.841 79.841 79.841zM174.031 602.080c-84.952 0-154.051-69.099-154.051-154.051 0-85.009 69.099-154.051 154.051-154.051s154.051 69.041 154.051 154.051c0 84.952-69.099 154.051-154.051 154.051zM174.031 368.188c-44.015 0-79.841 35.768-79.841 79.841 0 43.956 35.827 79.783 79.841 79.783s79.783-35.827 79.783-79.783c0-44.073-35.768-79.841-79.783-79.841zM544.030 602.080c-84.952 0-154.051-69.099-154.051-154.051 0-85.009 69.099-154.051 154.051-154.051 85.009 0 153.991 69.041 153.991 154.051 0 84.952-68.983 154.051-153.991 154.051zM544.030 368.188c-44.015 0-79.783 35.768-79.783 79.841 0 43.956 35.768 79.783 79.783 79.783s79.841-35.827 79.841-79.783c0-44.073-35.827-79.841-79.841-79.841zM914.029 602.080c-85.009 0-154.051-69.099-154.051-154.051 0-85.009 69.041-154.051 154.051-154.051 84.892 0 153.991 69.041 153.991 154.051 0 84.952-69.099 154.051-153.991 154.051zM914.029 368.188c-44.015 0-79.841 35.768-79.841 79.841 0 43.956 35.827 79.783 79.841 79.783 43.956 0 79.783-35.827 79.783-79.783 0-44.073-35.827-79.841-79.783-79.841zM174.031 244.042c-84.952 0-154.051-69.041-154.051-154.051 0-84.952 69.099-153.991 154.051-153.991s154.051 69.041 154.051 153.991c0 85.009-69.099 154.051-154.051 154.051zM174.031 10.209c-44.015 0-79.841 35.827-79.841 79.783 0 44.073 35.827 79.841 79.841 79.841s79.783-35.768 79.783-79.841c0-43.956-35.768-79.783-79.783-79.783zM544.030 244.042c-84.952 0-154.051-69.041-154.051-154.051 0-84.952 69.099-153.991 154.051-153.991 85.009 0 153.991 69.041 153.991 153.991 0 85.009-68.983 154.051-153.991 154.051zM544.030 10.209c-44.015 0-79.783 35.827-79.783 79.783 0 44.073 35.768 79.841 79.783 79.841s79.841-35.768 79.841-79.841c0-43.956-35.827-79.783-79.841-79.783zM914.029 244.042c-85.009 0-154.051-69.041-154.051-154.051 0-84.952 69.041-153.991 154.051-153.991 84.892 0 153.991 69.041 153.991 153.991 0 85.009-69.099 154.051-153.991 154.051zM914.029 10.209c-44.015 0-79.841 35.827-79.841 79.783 0 44.073 35.827 79.841 79.841 79.841 43.956 0 79.783-35.768 79.783-79.841 0-43.956-35.827-79.783-79.783-79.783z" />
<glyph unicode="&#xc037;" glyph-name="menu-3" d="M951.307 896.065h-878.545c-40.269 0-72.76-32.556-72.76-72.76s32.556-72.76 72.76-72.76h878.48c40.074 0 72.694 32.556 72.694 72.76 0.065 40.204-32.556 72.76-72.629 72.76zM951.307 645.819h-878.545c-40.269 0-72.76-32.556-72.76-72.826 0-40.204 32.556-72.694 72.76-72.694h878.48c40.074 0 72.694 32.49 72.694 72.694 0.065 40.335-32.556 72.826-72.629 72.826zM951.307 395.703h-878.545c-40.269 0-72.76-32.556-72.76-72.76 0-40.269 32.556-72.76 72.76-72.76h878.48c40.074 0 72.694 32.49 72.694 72.76 0.065 40.269-32.556 72.76-72.629 72.76zM951.307 145.521h-878.545c-40.269 0-72.76-32.686-72.76-72.694 0-40.335 32.556-72.891 72.76-72.891h878.48c40.074 0 72.694 32.556 72.694 72.891 0.065 40.008-32.556 72.694-72.629 72.694z" />
<glyph unicode="&#xc038;" glyph-name="grid-4" d="M0.065-64.001h279.201v279.331h-279.201v-279.331zM46.598 168.666h186.135v-186.135h-186.135v186.135zM0.065 308.398h279.201v279.331h-279.201v-279.331zM46.598 541.066h186.135v-186.265h-186.135v186.265zM279.266 959.999h-279.201v-279.331h279.201v279.331zM232.733 727.201h-186.135v186.265h186.135v-186.265zM1023.935 959.999h-279.201v-279.331h279.201v279.331zM977.399 727.201h-186.135v186.265h186.135v-186.265zM744.732 308.398h279.201v279.331h-279.201v-279.331zM791.267 541.066h186.135v-186.265h-186.135v186.265zM744.732-64.001h279.201v279.331h-279.201v-279.331zM791.267 168.666h186.135v-186.135h-186.135v186.135zM651.535 959.999h-279.201v-279.331h279.201v279.331zM605.002 727.201h-186.135v186.265h186.135v-186.265zM372.335-64.001h279.201v279.331h-279.201v-279.331zM418.868 168.666h186.135v-186.135h-186.135v186.135zM372.335 308.398h279.201v279.331h-279.201v-279.331zM418.868 541.066h186.135v-186.265h-186.135v186.265z" />
<glyph unicode="&#xc039;" glyph-name="grid-3" d="M255.63 960v-256.341h-254.862v256.341h254.862zM255.63 576.171v-256.341h-254.862v256.341h254.862zM255.63 192.398v-256.398h-254.862v256.398h254.862zM639.402 960v-256.341h-254.862v256.341h254.862zM639.402 576.171v-256.341h-254.862v256.341h254.862zM639.402 192.398v-256.398h-254.862v256.398h254.862zM1023.231 960v-256.341h-254.862v256.341h254.862zM1023.231 576.171v-256.341h-254.862v256.341h254.862zM1023.231 192.398v-256.398h-254.862v256.398h254.862z" />
<glyph unicode="&#xc040;" glyph-name="menu-2" d="M0.911 903.516h1023.089v-168.427h-1023.089v168.427zM0.001 532.214h1023.146v-168.484h-1023.146v168.484zM0.057 160.968h1023.089v-168.484h-1023.089v168.484z" />
<glyph unicode="&#xc041;" glyph-name="menu-1" d="M971.597 774.008c14.406 0 26.345-4.764 35.93-14.349 10.388-10.388 15.554-22.384 15.554-35.93 0-14.406-5.223-26.402-15.554-35.987-9.585-10.388-21.523-15.554-35.93-15.554h-920.056c-14.349 0-26.345 4.764-35.93 14.349-10.388 10.446-15.611 22.844-15.611 37.193 0 13.545 5.166 25.541 15.554 35.93 9.585 9.585 21.581 14.349 35.93 14.349h920.113zM972.516 498.967c14.406 0 26.345-4.764 35.93-14.349 10.388-10.388 15.554-22.384 15.554-35.93 0-14.406-5.223-26.402-15.554-35.987-9.585-10.388-21.523-15.554-35.93-15.554h-920.113c-14.349 0-26.345 4.764-35.93 14.349-10.388 10.388-15.554 22.729-15.554 37.135 0 13.545 5.166 25.541 15.554 35.93 9.585 9.585 21.581 14.349 35.93 14.349h920.113zM972.516 223.811c14.406 0 26.345-4.764 35.93-14.349 10.388-10.388 15.554-22.384 15.554-35.93 0-14.406-5.223-26.402-15.554-35.987-9.585-10.388-21.523-15.554-35.93-15.554h-920.113c-14.349 0-26.345 4.764-35.93 14.349-10.388 10.388-15.554 22.729-15.554 37.135 0 13.545 5.166 25.541 15.554 35.93 9.585 9.585 21.581 14.349 35.93 14.349h920.113z" />
<glyph unicode="&#xc042;" glyph-name="map-5" d="M510.781-64v0c-38.113 0-74.948 21.612-98.363 57.809l-68.209 103.707c-89.24 135.313-159.773 242.216-188.997 306.009-4.881 12.259-8.309 24.111-11.155 36.196-19.754 42.761-30.444 92.436-30.444 143.738 0 207.647 178.713 376.541 398.386 376.541s398.386-168.953 398.386-376.541c0-58.157-13.711-114.049-40.727-165.989-1.104-3.892-3.602-9.644-6.449-14.234-64.432-126.772-141.297-241.345-259.936-415.004-23.821-33.755-56.531-52.231-92.494-52.231zM512.001 914.043c-194.342 0-352.488-148.328-352.488-330.643 0-44.679 9.354-88.020 27.83-128.865 3.776-14.119 6.507-23.821 10.167-33.059 27.249-59.319 96.851-164.827 185.046-298.63l68.441-103.998c28.643-44.33 83.605-48.455 114.513-4.473 117.535 171.741 193.586 285.21 257.786 411.227 1.278 2.44 2.614 4.706 4.3 9.819 24.983 48.571 36.951 97.258 36.951 147.978-0.058 182.316-158.205 330.643-352.547 330.643zM512.001 371.686c-105.683 0-191.67 86.916-191.67 193.819 0 106.845 85.987 193.761 191.67 193.761s191.728-86.916 191.728-193.761c0-106.903-86.045-193.819-191.728-193.819zM512.001 713.31c-80.352 0-145.829-66.349-145.829-147.921 0-81.514 65.42-147.978 145.829-147.978s145.829 66.408 145.829 147.978c0 81.63-65.42 147.921-145.829 147.921z" />
<glyph unicode="&#xc043;" glyph-name="map-4" d="M512 777.194c-121.181 0-219.424-98.244-219.424-219.424 0-121.238 98.187-219.424 219.424-219.424s219.367 98.187 219.367 219.424c0 121.181-98.187 219.424-219.367 219.424zM512 411.468c-80.825 0-146.245 65.534-146.245 146.302 0 80.825 65.477 146.302 146.245 146.302s146.302-65.477 146.302-146.302c0-80.825-65.534-146.302-146.302-146.302zM512 960c-222.184 0-402.288-189.877-402.288-424.133 0-117.099 45.069-223.161 117.846-299.963l284.442-299.904 284.442 299.904c72.777 76.801 117.846 182.863 117.846 299.963 0 234.313-180.104 424.133-402.288 424.133zM731.367 301.727l-219.367-255.986-219.424 255.986c-147.509 145.383-145.325 329.338 0 475.467 136.069 136.587 301.342 135.322 438.792 0 146.188-143.83 148.371-328.82 0-475.467z" />
<glyph unicode="&#xc044;" glyph-name="map-3" d="M560.548 737.213c1.194-12.166-7.618-22.967-19.783-24.217-75.494-7.674-137.231-67.877-146.781-143.143-1.421-11.199-10.914-19.328-21.886-19.328-0.909 0-1.876 0.057-2.786 0.171-12.109 1.534-20.693 12.62-19.157 24.729 5.912 46.444 27.684 90.16 61.339 123.132 33.711 32.972 78.109 53.665 124.838 58.44 12.109 1.194 22.967-7.674 24.217-19.783zM562.595 662.743c62.817 0 113.867-51.106 113.867-113.867s-50.992-113.867-113.867-113.867c-62.76 0-113.867 51.050-113.867 113.867s51.106 113.867 113.867 113.867zM492.899 548.876c0-38.429 31.266-69.695 69.695-69.695s69.752 31.266 69.752 69.695c0 38.429-31.323 69.695-69.752 69.695s-69.695-31.266-69.695-69.695zM640.817 849.942c-11.881 3.013-23.876-4.093-26.946-15.917s4.036-23.819 15.861-26.889c119.665-30.811 203.288-138.765 203.288-262.58 0-88.91-112.672-310.502-173.329-429.542 0 0-41.044-81.121-43.318-85.784-16.202-34.052-24.616-49.002-54.461-49.002s-38.259 15.008-54.461 49.002c-2.274 4.661-43.318 85.784-43.318 85.784-45.478 89.308-130.068 255.531-161.050 362.405-3.411 11.654-15.633 18.419-27.344 15.065-11.71-3.467-18.476-15.69-15.065-27.4 29.674-102.269 100.28-244.673 164.119-370.136 0 0 40.646-80.269 42.807-84.76 15.746-33.028 35.359-74.186 94.367-74.186s78.563 41.158 94.367 74.186c2.161 4.491 42.807 84.76 42.807 84.76 86.238 169.406 178.161 357.8 178.161 449.61-0.057 143.938-97.323 269.515-236.487 305.386zM270.056 550.525c11.256 0 20.92 8.584 21.943 20.010 12.507 131.205 116.879 233.929 248.254 244.275 12.166 0.966 21.318 11.597 20.294 23.763-0.966 12.109-11.597 21.261-23.705 20.238-73.675-5.856-143.313-37.691-196.125-89.706-52.755-51.902-85.669-120.973-92.662-194.419-1.137-12.109 7.731-22.91 19.897-24.047 0.739-0.057 1.421-0.113 2.103-0.113zM539.855 915.147c12.166 0.739 21.431 11.142 20.749 23.308-0.739 12.166-11.199 21.546-23.364 20.749-207.494-12.166-375.082-177.706-389.635-385.031-0.909-12.166 8.3-22.739 20.465-23.592 0.568 0 1.080-0.057 1.592-0.057 11.483 0 21.205 8.868 22 20.522 13.075 185.267 162.756 333.185 348.193 344.1z" />
<glyph unicode="&#xc045;" glyph-name="map-2" d="M512.028 960c-212.061 0-384.028-171.911-384.028-383.972 0-86.408 28.501-166.086 76.625-230.213l307.404-409.815 307.404 409.758c48.124 64.184 76.568 143.806 76.568 230.213 0 212.117-171.911 384.028-383.972 384.028zM512.028 319.915c-141.374 0-256 114.626-256 256.057s114.626 256 256 256 255.943-114.569 255.943-255.943c0-141.43-114.569-256.113-255.943-256.113z" />
<glyph unicode="&#xc046;" glyph-name="map-1" horiz-adv-x="1152" d="M971.935 388.702l177.321-364.407c7.237-14.823-0.352-26.977-16.791-26.977h-1112.893c-16.51 0-24.026 12.155-16.86 26.977l177.392 364.407c2.81 5.832 10.399 10.467 16.86 10.467h152.1c4.706 0 11.029-2.88 14.12-6.462 10.328-11.873 20.865-23.605 31.333-35.127 9.976-10.89 19.952-21.99 29.858-33.37h-180.552c-6.462 0-13.982-4.706-16.86-10.538l-117.464-241.393h933.044l-117.536 241.393c-2.81 5.832-10.328 10.538-16.86 10.538h-180.835c9.905 11.31 19.882 22.412 29.928 33.37 10.399 11.593 21.006 23.255 31.403 35.127 3.022 3.583 9.344 6.462 13.982 6.462h152.452c6.393 0.070 13.982-4.637 16.86-10.467zM836.766 637.752c0-199.101-165.73-236.475-243.711-427.847-6.323-15.525-28.242-15.456-34.564 0.070-70.324 172.544-212.028 219.896-239.145 373.54-26.696 151.257 78.052 299.494 231.066 313.966 155.612 14.684 286.355-107.277 286.355-259.728zM713.681 637.752c0 76.085-61.754 137.767-137.838 137.767s-137.838-61.683-137.838-137.767c0-76.156 61.683-137.838 137.838-137.838s137.838 61.683 137.838 137.838z" />
<glyph unicode="&#xc047;" glyph-name="mail-5" d="M959.993 832.015h-895.985c-35.336 0-64.007-28.672-64.007-64.007v-640.016c0-35.274 28.672-64.007 64.007-64.007h895.985c35.274 0 64.007 28.733 64.007 64.007v640.016c0 35.336-28.733 64.007-64.007 64.007zM64.007 585.949l245.638-166.958-245.638-245.699v412.657zM109.246 127.991l254.258 254.319 148.617-100.994 147.761 101.728 254.87-254.93-805.507-0.122zM959.993 173.292l-246.616 246.616 246.616 169.648v-416.264zM959.993 664.446l-1.344 1.956-446.648-307.69-447.993 304.51v104.785h895.985v-103.562z" />
<glyph unicode="&#xc048;" glyph-name="mail-4" horiz-adv-x="1152" d="M1056.137 64.001h-960.137c-52.898 0-96 42.963-96 95.931v576.068c0 52.968 43.033 96 96 96h960.069c52.831 0 95.931-43.033 95.931-96v-576c0.069-53.037-43.033-96-95.863-96zM96 783.966c-26.449 0-47.966-21.517-47.966-48.034v-576c0-26.518 21.517-48.034 47.966-48.034h960.069c26.449 0 47.899 21.517 47.899 48.034v576.068c0 26.449-21.448 48.034-47.899 48.034l-960.069-0.069zM984.121 232.017c-4.111 0-8.223 0.959-11.923 3.084l-168.016 95.931c-11.58 6.716-15.554 21.379-8.976 32.823 6.646 11.649 21.379 15.418 32.755 8.976l168.016-95.931c11.58-6.578 15.554-21.31 8.976-32.823-4.454-7.675-12.608-12.060-20.831-12.060zM168.086 232.017c-8.359 0-16.448 4.385-20.897 12.060-6.578 11.512-2.535 26.245 8.908 32.823l168.016 95.931c11.44 6.578 26.105 2.535 32.755-8.976 6.578-11.375 2.535-26.105-8.908-32.823l-168.016-95.931c-3.769-2.192-7.811-3.084-11.854-3.084zM576.069 327.949c-4.523 0-9.044 1.37-13.019 3.905l-408.051 264.019c-11.099 7.126-14.324 21.995-7.126 33.165 7.192 11.099 22.063 14.324 33.233 7.126l394.961-255.589 395.032 255.589c11.033 7.126 25.969 4.044 33.165-7.126 7.126-11.169 4.044-25.969-7.126-33.165l-408.051-264.019c-3.905-2.535-8.497-3.905-13.019-3.905z" />
<glyph unicode="&#xc049;" glyph-name="mail-3" d="M0 831.984v-136.554l512-418.17 512 418.233v136.491h-1024zM938.677 738.155l-426.677-349.798-426.677 349.798v8.507h853.354v-8.507zM938.677 149.339h-853.354v341.354h-85.323v-426.677h1024v426.677h-85.323z" />
<glyph unicode="&#xc050;" glyph-name="mail-2" horiz-adv-x="1088" d="M28.32 65.999h1031.359c15.694 0 28.328 12.634 28.328 28.328v707.348c0 15.616-12.634 28.328-28.328 28.328h-1031.359c-15.694 0-28.328-12.712-28.328-28.328v-707.348c-0.079-15.694 12.634-28.328 28.328-28.328zM1031.271 122.734h-974.623v513.207l474.756-235.26c7.926-3.923 17.264-3.923 25.111 0l474.756 235.26v-513.207zM1031.271 773.345v-74.077l-487.312-241.538-487.312 241.538v74.077h974.623z" />
<glyph unicode="&#xc051;" glyph-name="mail-1" horiz-adv-x="1088" d="M1047.624 831.963h-1007.33c-22.283 0-40.302-18.1-40.302-40.302v-687.322c0-22.202 18.1-40.302 40.302-40.302h1007.33c22.283 0 40.383 18.1 40.383 40.302v687.241c0 22.283-18.1 40.383-40.383 40.383zM80.597 715.318l273.995-186.954-273.995-316.068v503.022zM544.039 496.75l-373.104 254.527h746.126l-373.022-254.527zM421.683 482.592l99.592-67.975c6.837-4.746 14.802-7.080 22.766-7.080 7.884 0 15.847 2.333 22.685 7.080l99.592 67.975 293.062-338.028h-830.754l293.062 338.028zM733.407 528.363l273.995 186.954v-502.86l-273.995 315.906z" />
<glyph unicode="&#xc052;" glyph-name="list" d="M0 723.692h236.308v-236.308h-236.308zM315.077 566.154h708.923v-78.769h-708.923zM315.077 723.692h708.923v-78.769h-708.923zM315.077 408.615h708.923v-78.769h-708.923zM315.077 251.077h708.923v-78.769h-708.923zM0 408.615h236.308v-236.308h-236.308zM78.769 644.923v-78.769h78.769v78.769zM78.769 329.846v-78.769h78.769v78.769z" />
<glyph unicode="&#xc053;" glyph-name="play-1" d="M85.333-64v1024l853.333-512-853.333-512zM717.312 448l-518.656 310.67v-622.649l518.656 311.979z" />
<glyph unicode="&#xc054;" glyph-name="light" d="M897.626 959.999l-255.361-393.436h229.291l-745.181-630.564 158.92 474.201h-132.85l184.99 549.798h560.193zM657.94 488.41h-158.92l255.361 393.436h-362.251l-130.238-393.436h130.293l-101.611-312.669 367.366 312.669z" />
<glyph unicode="&#xc055;" glyph-name="layout" d="M0 960h1024v-1024h-1024v1024zM59.994 658.020h904.012v241.986h-904.012v-241.986zM59.994 598.024v-601.953h541.959v601.953h-541.959zM963.928-4.006v602.030h-301.98v-601.953h301.98z" />
<glyph unicode="&#xc056;" glyph-name="layout-1" d="M302.026 960v-1024h-301.982v1024h301.982zM481.965 900.021v59.979h-59.979v-59.979h59.979zM481.965 779.972v59.979h-59.979v-59.979h59.979zM481.965 658.020v61.973h-59.979v-62.063h59.979zM481.965 537.97v60.071h-59.979v-59.979h59.979zM481.965 418.011v59.979h-59.979v-59.979h59.979zM481.965 298.051v60.071h-59.979v-60.071h59.979zM481.965 176.009v62.063h-59.979v-62.063h59.979zM481.965 56.050v59.979h-59.979v-59.979h59.979zM481.965-64v59.979h-59.979v-59.979h59.979zM587.971 900.021v59.979h-52.007v-59.979h52.007zM587.971-64v59.979h-52.007v-59.979h52.007zM695.971 900.021v59.979h-53.999v-59.979h53.999zM695.971-64v59.979h-53.999v-59.979h53.999zM803.879 900.021v59.979h-53.999v-59.979h53.999zM803.879-64v59.979h-53.999v-59.979h53.999zM909.886 900.021v59.979h-53.999v-59.979h53.999zM909.886-64v59.979h-53.999v-59.979h53.999zM963.885 900.021h60.071v59.979h-60.071v-59.979zM1023.956 779.972v59.979h-60.071v-59.979h60.071zM1023.956 658.020v61.973h-60.071v-62.063h60.071zM1023.956 537.97v60.071h-60.071v-59.979h60.071zM1023.956 418.011v59.979h-60.071v-59.979h60.071zM1023.956 298.051v60.071h-60.071v-60.071h60.071zM1023.956 176.009v62.063h-60.071v-62.063h60.071zM1023.956 56.050v59.979h-60.071v-59.979h60.071zM1023.956-64v59.979h-60.071v-59.979h60.071z" />
<glyph unicode="&#xc057;" glyph-name="hand" d="M886.249 248.328c0-11.046-1.513-22.395-4.161-34.123-2.799-11.652-5.902-23.682-9.307-36.166-3.555-12.409-7.263-25.196-11.349-38.284-4.161-13.165-9.004-25.196-14.451-36.242-2.799-8.247-5.447-16.57-8.247-24.817s-5.146-16.267-7.263-23.758c-2.042-7.641-3.858-14.225-5.146-19.672-1.362-5.524-2.042-10.365-2.042-14.451v-53.795c0-4.161-1.060-7.869-3.102-11.349s-4.464-6.582-7.263-9.307-5.902-5.146-9.307-7.263-7.263-3.102-11.349-3.102c-5.447 0-10.063 1.060-13.468 3.102s-6.507 4.54-9.307 7.263-5.146 5.825-7.263 9.307-3.102 7.263-3.102 11.349v53.795c0 6.885 1.060 14.148 3.102 21.714s4.161 15.51 6.204 23.758 4.843 17.251 8.247 26.86c3.405 9.608 7.263 19.975 11.349 31.021 4.161 11.046 8.247 22.017 12.409 33.14 4.161 11.046 7.944 22.017 11.349 33.14 3.405 11.046 6.204 21.336 8.247 30.946 2.042 9.685 3.102 18.612 3.102 26.86v198.61c0 4.161-1.060 8.247-3.102 12.409s-4.464 7.641-7.263 10.365c-2.799 2.799-6.204 5.146-10.365 7.263s-8.247 3.102-12.409 3.102-7.944-1.060-11.349-3.102-6.507-4.464-9.307-7.263c-2.799-2.723-4.843-6.204-6.204-10.365-1.438-4.161-2.042-8.247-2.042-12.409s-0.757-7.869-2.042-11.349c-1.438-3.405-3.48-6.507-6.204-9.307-2.799-2.723-6.204-4.767-10.365-6.204-4.161-1.362-8.247-2.042-12.409-2.042s-8.247 0.757-12.409 2.042c-4.161 1.438-7.641 3.48-10.365 6.204-2.799 2.799-4.843 6.204-6.204 10.365-1.438 4.161-2.042 8.247-2.042 12.409v97.3c0 4.161-0.757 8.247-2.042 12.409-1.438 4.161-3.858 7.869-7.263 11.349-3.48 3.405-6.96 5.825-10.365 7.263-3.48 1.362-7.263 2.042-11.349 2.042s-7.944-0.757-11.349-2.042c-3.48-1.438-6.96-3.48-10.365-6.204-3.48-2.799-5.902-6.204-7.263-10.365-1.438-4.161-2.042-8.247-2.042-12.409-1.438-4.161-2.799-7.944-4.161-11.349-1.438-3.405-3.48-6.507-6.204-9.307-2.799-2.799-6.204-4.843-10.365-6.204s-8.247-2.042-12.409-2.042-7.944 1.060-11.349 3.102-6.507 4.464-9.307 7.263-4.843 5.825-6.204 9.307c-1.362 3.329-2.119 7.188-2.119 11.274v78.687c0 5.447-1.060 9.987-3.102 13.468-2.042 3.405-4.464 6.885-7.263 10.365-2.799 3.405-5.902 5.825-9.307 7.263-3.405 1.362-7.263 2.042-11.349 2.042s-8.247-0.757-12.409-2.042c-4.161-1.438-7.566-3.48-10.365-6.204-2.799-2.799-5.146-5.902-7.263-9.307-2.042-3.48-3.102-7.263-3.102-11.349-1.362-2.799-2.799-6.204-4.161-10.365s-3.858-7.263-7.263-9.307-6.809-3.934-10.214-5.296c-3.405-1.438-7.263-2.042-11.349-2.042-4.161 1.362-7.944 2.723-11.349 4.161-3.405 1.362-6.507 3.405-9.307 6.204-2.876 2.723-4.918 5.825-6.28 9.307-1.362 3.405-2.042 7.263-2.042 11.349v227.512c0 4.161-1.060 8.247-3.102 12.409s-4.464 7.566-7.263 10.365-5.902 5.146-9.307 7.263-7.263 3.102-11.349 3.102-8.323-1.060-12.484-3.102-7.566-4.464-10.365-7.263-5.146-6.204-7.188-10.365-3.102-8.247-3.102-12.409v-384.811c0-4.161-0.303-7.566-1.060-10.365-0.681-2.723-1.741-5.447-3.102-8.247-1.362-2.723-3.405-5.146-6.204-7.263s-5.524-3.102-8.247-3.102c-2.799-1.362-5.902-2.345-9.307-3.102-3.405-0.681-6.507-0.681-9.307 0-2.799 0.757-5.524 2.042-8.247 4.161s-5.524 3.858-8.247 5.146l-68.398 76.645c-6.885 6.885-13.090 12.030-18.537 15.51-5.524 3.405-10.063 5.524-13.468 6.204-3.48 0.681-6.204 0.681-8.247 0-2.119-0.681-4.54-1.741-7.263-3.102-4.161-2.799-7.263-5.902-9.307-9.307-2.042-3.48-3.858-7.263-5.146-11.349-1.438-4.161-1.741-8.626-1.060-13.468s2.345-9.307 5.146-13.468l204.813-442.691c0-1.438 0.681-2.799 2.042-4.161 1.362-1.438 2.799-2.421 4.161-3.102 1.362-0.757 3.102-1.438 5.146-2.042 2.042-0.757 4.464-1.741 7.263-3.102 2.799-1.438 5.524-2.799 8.247-4.161 2.799-1.438 5.146-3.48 7.263-6.204 2.042-2.799 3.783-5.902 5.146-9.307 1.362-3.48 2.042-6.582 2.042-9.307v-53.795c0-4.161-0.681-7.869-2.042-11.349s-3.783-6.582-7.263-9.307-6.885-5.146-10.365-7.263-7.263-3.102-11.349-3.102-8.247 1.060-12.409 3.102-7.566 4.54-10.365 7.263-4.843 5.825-6.204 9.307-2.042 7.263-2.042 11.349v31.021c-4.161 2.723-7.944 5.524-11.349 8.247s-6.507 5.447-9.307 8.247c-2.799 2.723-5.524 5.825-8.247 9.307-2.799 3.405-4.843 7.263-6.204 11.349l-204.813 442.691c-6.96 9.685-10.743 20.731-11.349 33.14-0.757 12.409 0.303 24.439 3.102 36.242 2.723 11.727 7.869 22.774 15.51 33.14 7.566 10.365 16.873 18.234 27.919 23.758 15.132 9.608 29.28 14.451 42.445 14.451 13.090 0 24.817-2.421 35.107-7.263 10.29-4.767 19.294-10.593 26.86-17.477 7.566-6.96 13.468-12.409 17.553-16.57l16.57-18.612v306.123c0 12.409 2.421 24.514 7.263 36.242s11.727 22.092 20.656 31.021 18.991 15.813 30.037 20.656 23.455 7.263 37.225 7.263c12.409 0 24.514-2.421 36.242-7.263s21.714-11.727 29.961-20.656 14.754-19.294 19.672-31.021 7.263-23.758 7.263-36.242v-144.815c2.799 0 5.447 0.303 8.247 1.060s5.146 1.362 7.263 2.042 4.464 1.060 7.263 1.060 6.204 0 10.365 0c11.046 0 22.017-2.042 33.14-6.204s20.656-10.365 28.979-18.612c8.247-8.247 15.132-17.553 20.656-27.919 5.447-10.365 8.929-21.714 10.365-34.123 1.362 0 3.405 0.303 6.204 1.060 2.723 0.681 5.447 1.362 8.247 2.042 2.723 0.681 5.447 1.060 8.247 1.060 2.723 0 5.447 0 8.247 0 12.409 0 24.439-2.421 36.242-7.263 11.652-4.843 21.714-11.727 29.961-20.656 8.247-9.004 14.754-18.991 19.672-29.961 4.767-11.046 7.263-23.455 7.263-37.225v-8.398c2.723 0 5.146 0.303 7.263 1.060 2.042 0.681 4.464 1.362 7.263 2.042s5.146 1.060 7.263 1.060 4.464 0 7.263 0c13.77 0 26.178-2.421 37.225-7.263s20.957-11.727 29.961-20.656c8.852-9.004 15.813-18.915 20.656-30.037 4.69-11.046 7.263-23.455 7.263-37.225v-198.61z" />
<glyph unicode="&#xc058;" glyph-name="grid" d="M599.933-64v424.902h423.295v-424.902h-423.295zM690.94 28.551h241.343v241.346h-241.343v-241.346zM0.772-64v424.902h423.355v-424.902h-423.355zM91.777 28.551h241.346v241.346h-241.346v-241.346zM599.933 535.098v424.902h423.295v-424.902h-423.295zM690.94 627.71h241.343v241.346h-241.343v-241.346zM0.772 535.098v424.902h423.355v-424.902h-423.355zM91.777 627.71h241.346v241.346h-241.346v-241.346z" />
<glyph unicode="&#xc059;" glyph-name="down" d="M53.519 731.001l458.052-459.141 457.937 459.141 54.492-54.492-512.43-511.512-511.57 511.398 53.518 54.607z" />
<glyph unicode="&#xc060;" glyph-name="compare-7" d="M959.928 960.001h-639.929c-35.343 0-63.964-28.621-63.964-64.036v-191.964h-192.036c-35.343 0-63.964-28.621-63.964-63.964v-639.929c0-35.343 28.621-64.108 63.964-64.108h639.929c35.271 0 63.964 28.621 63.964 64.108v191.964h192.036c35.198 0 64.036 28.621 64.036 63.964v640.001c0 35.343-28.621 63.964-64.036 63.964zM671.91 32.054h-575.893v575.965h160.018v-351.982c0-35.198 28.621-63.964 63.964-63.964h351.91v-160.018zM927.981 288.126h-575.965v575.893h575.965v-575.893z" />
<glyph unicode="&#xc061;" glyph-name="compare-6" d="M768.016 767.915h-704.021c-35.337 0-63.995-28.658-63.995-63.995v-703.891c0-35.337 28.658-63.931 63.995-63.931h703.955c35.273 0 63.995 28.594 63.995 63.931v703.891c0.065 35.337-28.594 63.995-63.931 63.995zM768.016 31.863c0-17.636-14.394-31.9-31.9-31.9h-640.089c-17.636 0-32.031 14.329-32.031 31.9v640.024c0 17.636 14.329 31.966 32.031 31.966h640.089c17.571 0 31.9-14.329 31.9-31.966v-640.024zM960.004 959.903h-639.96c-35.337 0-63.995-28.658-63.995-63.995v-63.995h63.995v32.031c0 17.636 14.329 32.031 32.031 32.031h575.964c17.571 0 31.9-14.329 31.9-32.031v-575.964c0-17.636-14.394-32.031-31.9-32.031h-32.031v-63.866h63.931c35.337 0 63.995 28.529 63.995 63.866v639.96c0.065 35.337-28.594 63.995-63.931 63.995z" />
<glyph unicode="&#xc062;" glyph-name="compare-5" d="M351.706 959.969h672.294v-672.294h-74.899v597.395h-597.395v74.899zM200.55 733.854h597.333v-597.395h74.96v672.294h-672.294v-74.899zM709.773-63.969h-709.773v709.773h709.773v-709.773zM634.874 570.844h-559.915v-559.915h559.915v559.915z" />
<glyph unicode="&#xc063;" glyph-name="compare-4" d="M640.044 575.978h-128.010v-128.010h128.010v128.010zM640.044 255.988h-128.010v-128.010h128.010v128.010zM319.996 575.978h-127.951v-128.010h128.010v128.010zM319.996 255.988h-127.951v-128.010h128.010v128.010zM992.050 959.943h-768.046c-17.679 0-32.017-14.338-32.017-31.957v-159.968h-159.968c-17.679 0-32.017-14.338-32.017-31.957v-768.046c0-17.679 14.338-31.957 32.017-31.957h767.989c17.679 0 31.957 14.338 31.957 31.957v160.023h160.023c17.679 0 31.957 14.338 31.957 31.957v767.989c0.056 17.622-14.278 31.957-31.904 31.957zM768.051 0.029h-704.012v703.958h704.012v-703.958zM960.033 191.953h-128.064v576.007h-575.949v128.010h704.012v-704.012z" />
<glyph unicode="&#xc064;" glyph-name="compare-3" d="M580.569 640.065h-457.187c-68.056 0-123.382-55.402-123.382-123.457v-457.114c0-67.982 55.327-123.457 123.382-123.457h457.114c68.056 0 123.457 55.475 123.457 123.457v457.114c0 68.056-55.402 123.457-123.382 123.457zM639.942 59.495c0-32.74-26.633-59.373-59.448-59.373h-457.114c-32.74 0-59.448 26.56-59.448 59.373v457.114c0 32.74 26.633 59.448 59.448 59.448h457.114c32.74 0 59.448-26.633 59.448-59.448v-457.114zM900.467 959.963h-457.114c-68.056 0-123.382-55.327-123.382-123.457v-100.501c0-17.658 14.274-32.078 32.005-32.078 17.658 0 32.005 14.347 32.005 32.078v100.575c0 32.74 26.633 59.448 59.448 59.448h457.114c32.814 0 59.448-26.633 59.448-59.448v-457.039c0-32.74-26.56-59.521-59.448-59.521h-100.501c-17.658 0-32.078-14.2-32.078-31.931s14.347-32.078 32.078-32.078h100.501c68.056 0 123.457 55.327 123.457 123.457v457.114c-0.073 68.129-55.475 123.382-123.53 123.382z" />
<glyph unicode="&#xc065;" glyph-name="compare-2" d="M275.595-64h745.789v745.789h-745.789v-745.789zM340.383 617.001h616.271v-616.213h-616.271v616.213zM683.673 584.636h64.73v-370.483h-370.367v64.788h305.695v305.695zM248.46 214.153h-245.846v745.847h745.789v-245.846h-64.73v181.116h-616.271v-616.271h181.058v-64.846z" />
<glyph unicode="&#xc066;" glyph-name="compare-1" d="M191.995 959.999v-170.746h42.636v128.11h746.664v-768.050h-128.042v-42.567h170.746v853.253h-832.003zM-0.001-63.999h810.685v810.685h-810.685v-810.685zM42.635 703.982h725.346v-725.346h-725.346v725.346z" />
<glyph unicode="&#xc067;" glyph-name="close" d="M959.996 42.587l-42.554-42.554-405.413 405.413-405.413-405.413-42.554 42.554 405.413 405.413-405.471 405.413 42.554 42.554 405.413-405.413 405.413 405.413 42.554-42.554-405.413-405.413 405.471-405.413z" />
<glyph unicode="&#xc068;" glyph-name="chart" horiz-adv-x="1088" d="M1088.007-0.382h-1088.015v63.751h1088.015v-63.751zM601.268 384.25l359.149 399.46v-146.59h63.839v259.262h-259.262v-63.751h152.983l-325.144-363.412-263.525 189.119-280.483-252.87 42.53-46.703 242.216 218.864 267.697-193.382z" />
<glyph unicode="&#xc069;" glyph-name="cart-6" d="M704.094 768.097c-1.407 53.246-20.895 98.705-58.158 135.983-37.266 37.281-81.92 55.92-133.938 55.92-52.015 0-96.67-18.639-133.933-55.92-37.489-37.281-56.737-82.737-58.161-135.983h-191.903v-832.097h767.999v832.097h-191.905zM422.912 859.025c24.782 24.784 54.479 37.073 89.086 37.073 34.594 0 64.323-12.288 89.088-37.073 24.576-24.559 37.476-54.897 38.912-90.928h-255.999c1.231 36.031 14.336 66.369 38.912 90.928zM831.904 0.096h-639.81v703.905h639.81v-703.905z" />
<glyph unicode="&#xc070;" glyph-name="cart-5" d="M49.005-66.981l23.35 292.924v663.862h879.258v-663.84l23.382-292.946h-925.99zM908.176-5.297l-18.096 226.818-0.171 1.862v604.706h-755.818v-604.642l-0.166-1.968-18.1-226.754 792.352-0.023zM516.381 479.969c-61.072 0-119.412 22.906-164.275 64.5-43.266 40.11-70.246 94.008-76.346 152.264-10.36 8.93-16.396 21.916-16.396 35.778 0 26.070 21.202 47.278 47.262 47.278 26.056 0 47.252-21.208 47.252-47.278 0-10.526-3.432-20.538-9.764-28.746 4.398-41.506 23.582-79.91 54.356-108.592 32.165-29.976 74.040-46.487 117.917-46.487 43.352 0 84.872 16.158 116.91 45.499 30.352 27.794 49.731 65.058 54.986 105.482-8.603 8.788-13.426 20.436-13.426 32.866 0 26.082 21.214 47.298 47.292 47.298 26.1-0.058 47.312-21.294 47.312-47.34v-7.31l-0.64-0.33c-1.466-8.769-5.432-17.021-11.438-23.732-10.806-124.378-115.809-221.152-241-221.152z" />
<glyph unicode="&#xc071;" glyph-name="cart-4" d="M841.006 741.641h-192.224v75.404c0 78.82-64.135 142.955-142.955 142.955s-142.955-64.135-142.955-142.955v-75.343h-192.285l-49.45-805.702h781.726l-61.857 805.642zM395.059 817.045c0 61.078 49.75 110.768 110.828 110.768 61.019 0 110.768-49.75 110.768-110.768v-75.404h-221.595v75.404z" />
<glyph unicode="&#xc072;" glyph-name="cart-3" d="M896.008 767.996h-192.004c-6.263 104.899-85.992 192.004-192.004 192.004-105.953 0-185.623-87.105-192.004-192.004h-192.004l-63.982-831.997h895.978l-63.982 831.997zM512.001 895.725c70.831 0 121.875-58.245 128.021-127.729h-256.044c6.205 69.484 57.191 127.729 128.021 127.729zM192.034 704.014h639.993l64.275-703.681h-768.6l64.333 703.681zM352.017 640.033c-35.357 0-63.982-28.683-63.982-63.982 0-35.357 28.683-63.982 63.982-63.982s63.982 28.625 63.982 63.923c0 35.299-28.625 64.040-63.982 64.040zM671.985 640.033c-35.299 0-63.982-28.683-63.982-63.982 0-35.357 28.683-63.982 63.982-63.982 35.357 0 64.040 28.683 64.040 63.982 0 35.239-28.683 63.982-64.040 63.982z" />
<glyph unicode="&#xc073;" glyph-name="cart-2" d="M117.87-63.942c-26.493 0-50.876 10.672-66.899 29.281-15.155 17.601-21.547 40.461-18.021 64.398l86.398 791.321c5.001 42.736 41.516 74.886 84.944 74.886h615.28c42.941 0 80.251-32.881 84.943-74.854l86.593-791.339c3.426-23.021-3.125-45.513-18.454-63.344-16.329-19.002-41.177-30.348-66.466-30.348h-788.315zM204.297 831.024c-10.373 0-18.518-7.686-19.806-18.696l-86.447-789.674-0.049-0.301c-0.958-6.044 0.121-10.943 3.21-14.56 3.593-4.21 9.982-6.828 16.668-6.828h788.318c7.174 0 12.892 2.345 16.547 6.781 3.158 3.833 4.401 8.926 3.413 13.97l-0.101 0.518-86.465 791.931c-1.399 10.008-10.627 18.756-19.814 18.756h-602.95v-1.909h-12.522zM512.22 336.393c-115.679 0-209.793 93.087-209.793 207.503v193.264c0 17.949 14.69 32.553 32.746 32.553s32.746-14.603 32.746-32.553v-193.264c0-78.518 64.649-142.396 144.111-142.396s144.111 63.878 144.111 142.392v193.836c0 17.952 14.69 32.553 32.746 32.553 0.002 0 0.005 0 0.008 0 17.957 0 32.815-14.592 33.121-32.532l0.002-193.86c0-114.413-94.114-207.503-209.793-207.503z" />
<glyph unicode="&#xc074;" glyph-name="cart-1" d="M896.002 768h-192.004c-6.332 104.892-86.014 192-191.998 192s-185.666-87.11-192-192h-192l-64-832h896l-63.998 832zM512 895.744c70.785 0 121.867-58.235 128-127.742h-256c6.207 69.507 57.149 127.742 128 127.742zM192 704h640l64.267-703.685h-768.584l64.317 703.685z" />
<glyph unicode="&#xc075;" glyph-name="arrow-regular" d="M687.096 795.976c-13.889 14.359-36.971 14.359-51.398 0-13.889-13.957-13.889-37.038 0-50.929l260.747-260.747h-860.413c-20.063 0-36.032-15.97-36.032-36.032s15.97-36.502 36.032-36.502h860.413l-260.747-260.278c-13.889-14.359-13.889-37.576 0-51.465 14.426-14.359 37.509-14.359 51.398 0l322.545 322.545c14.359 13.889 14.359 37.038 0 50.862l-322.545 322.545z" />
<glyph unicode="&#xc076;" glyph-name="arrow-light" d="M689.118 782.855l-26.61-26.61 289.359-289.469h-951.868v-37.606h951.977l-289.469-289.414 26.61-26.61 334.882 334.827z" />
<glyph unicode="&#xc077;" glyph-name="arrow-bold" d="M689.362 782.638l-66.928-66.928 220.867-220.867h-843.301v-93.685h843.301l-220.867-220.867 66.928-66.928 334.638 334.571z" />
<glyph unicode="&#xc078;" glyph-name="arrow-1" d="M596.693 191.615v512.769l427.307-256.384-427.307-256.384zM913.185 447.999l-259.746 155.54v-311.821l259.746 156.281zM0 475.688h610.708v-56.746h-610.708v56.746z" />
<glyph unicode="&#xc079;" glyph-name="zoom-out" horiz-adv-x="1088" d="M464.946 575.705h-192.821c-12.12 0-21.947 9.825-21.947 21.947s9.829 21.947 21.947 21.947h192.821c12.122 0 21.947-9.825 21.947-21.947s-9.825-21.947-21.947-21.947zM368.535 352.335c-135.272 0-245.324 110.052-245.324 245.322s110.055 245.322 245.324 245.322c135.272 0 245.324-110.052 245.324-245.322s-110.052-245.322-245.324-245.322zM368.535 799.083c-111.070 0-201.429-90.358-201.429-201.426s90.361-201.426 201.429-201.426c111.068 0 201.429 90.358 201.429 201.426s-90.358 201.426-201.429 201.426zM368.424 235.314c-90.034 0-176.396 33.317-243.169 93.813-148.065 134.148-159.388 363.745-25.242 511.809 68.55 75.667 166.458 119.064 268.621 119.064 90.036 0 176.4-33.319 243.18-93.822 71.731-64.98 113.862-154.004 118.632-250.672 4.767-96.668-28.398-189.404-93.39-261.127-68.552-75.667-166.466-119.064-268.633-119.064zM368.633 916.102c-89.795 0-175.845-38.141-236.089-104.639-117.896-130.126-107.945-331.908 22.181-449.804 58.686-53.168 134.577-82.446 213.697-82.446 89.799 0 175.856 38.139 236.102 104.639 57.119 63.034 86.267 144.537 82.075 229.492-4.19 84.955-41.215 163.194-104.258 220.304-58.69 53.172-134.587 82.456-213.709 82.456zM918.861-63.999c-38.974-0.002-78.065 13.878-109.157 42.041-0.479 0.435-0.94 0.888-1.379 1.365l-227.799 246.305c-8.23 8.899-7.689 22.786 1.212 31.014 8.902 8.23 22.786 7.689 31.017-1.21l227.108-245.566c48.57-43.313 123.341-39.409 167.114 8.897 21.303 23.515 32.175 53.917 30.611 85.609-1.55 31.383-15.108 60.308-38.205 81.554l-271.010 205.092c-9.666 7.315-11.573 21.078-4.256 30.746 7.313 9.662 21.078 11.569 30.744 4.256l271.818-205.702c0.516-0.391 1.014-0.803 1.492-1.236 32.204-29.175 51.121-69.144 53.263-112.547s-12.747-85.043-41.924-117.246c-32.068-35.384-76.283-53.372-120.649-53.372z" />
<glyph unicode="&#xc080;" glyph-name="zoom-in" horiz-adv-x="1088" d="M465.082 619.6h-74.464v74.46c0 12.12-9.829 21.947-21.947 21.947-12.122 0-21.947-9.829-21.947-21.947v-74.46h-74.464c-12.12 0-21.947-9.826-21.947-21.947s9.829-21.947 21.947-21.947h74.464v-74.454c0-12.122 9.826-21.947 21.947-21.947s21.947 9.826 21.947 21.947v74.454h74.464c12.12 0 21.947 9.829 21.947 21.947 0 12.122-9.829 21.947-21.947 21.947zM368.671 842.98c-135.273 0-245.325-110.050-245.325-245.321s110.052-245.325 245.325-245.325 245.325 110.052 245.325 245.323-110.052 245.323-245.325 245.323zM368.671 396.23c-111.069 0-201.429 90.36-201.429 201.427s90.36 201.427 201.429 201.427c111.069 0 201.429-90.358 201.429-201.425s-90.358-201.429-201.429-201.429zM637.192 354.378c64.99 71.723 98.155 164.461 93.385 261.129s-46.9 185.69-118.632 250.671c-66.78 60.501-153.143 93.822-243.181 93.822-102.164 0-200.071-43.399-268.622-119.065-64.983-71.727-98.145-164.465-93.377-261.132s46.898-185.693 118.628-250.678c66.774-60.497 153.131-93.813 243.167-93.813 102.164 0 200.078 43.397 268.631 119.065zM368.559 279.209c-79.12 0-155.012 29.281-213.696 82.449-63.040 57.11-100.066 135.352-104.256 220.309-4.19 84.955 24.954 166.461 82.067 229.496 60.244 66.5 146.294 104.641 236.089 104.641 79.122 0 155.019-29.285 213.709-82.456 63.043-57.11 100.070-135.347 104.26-220.305s-24.954-166.461-82.074-229.492c-60.247-66.502-146.304-104.643-236.1-104.643zM1028.305 219.169c-0.479 0.435-0.975 0.847-1.492 1.238l-271.823 205.7c-9.666 7.315-23.429 5.408-30.747-4.255-7.313-9.666-5.408-23.431 4.257-30.747l271.015-205.088c47.881-44.062 51.353-118.851 7.59-167.164-43.77-48.309-118.54-52.209-167.114-8.898l-227.102 245.562c-8.228 8.895-22.114 9.444-31.017 1.212-8.9-8.23-9.442-22.116-1.212-31.017l227.794-246.306c0.439-0.477 0.9-0.93 1.381-1.365 31.091-28.161 70.185-42.041 109.157-42.041 44.367 0.002 88.58 17.99 120.644 53.377 60.227 66.482 55.143 169.568-11.331 229.792z" />
<glyph unicode="&#xc081;" glyph-name="team" horiz-adv-x="1472" d="M1287.513 395.061c-14.558 3.57-23.018 13.392-25.607 29.864 51.75 30.161 80.96 93.009 80.96 176.247 0 108.037-76.359 195.93-170.215 195.93-93.85 0-170.209-87.895-170.209-195.93 0-83.242 29.21-146.089 80.952-176.248-2.582-16.467-11.046-26.289-25.6-29.864-76.713-18.814-122.774-42.663-150.519-78.484-33.234 7.502-55.755 22.786-59.027 63.578 72.913 38.432 114.246 124.61 114.246 240.339 0 144.755-101.601 262.523-226.49 262.523s-226.49-117.767-226.49-262.523c0-115.724 41.337-201.904 114.246-240.339-3.281-40.796-30.231-58.827-59.036-63.578-27.736 35.821-73.773 59.665-150.512 78.484-14.558 3.572-23.020 13.392-25.601 29.864 51.744 30.155 80.952 93.003 80.952 176.248 0 108.037-76.354 195.93-170.209 195.93s-170.215-87.895-170.215-195.93c0-83.24 29.21-146.085 80.956-176.247-2.584-16.468-11.047-26.291-25.6-29.864-137.943-33.829-184.497-85.794-184.497-205.934 0-16.587 13.45-30.040 30.040-30.040h314.115c-13.196-38.066-15.632-78.754-15.632-116.064 0-16.587 13.453-30.040 30.040-30.040h754.89c16.587 0 30.040 13.453 30.040 30.040 0 37.313-2.438 77.996-15.632 116.064h314.111c16.587 0 30.040 13.453 30.040 30.040 0 120.142-46.558 172.103-184.501 205.934zM61.059 219.168c4.675 59.083 29.239 90.928 137.75 117.539 36.909 9.060 75.213 42.219 72.032 108.137-0.573 11.888-8.106 22.313-19.212 26.589-56.319 21.687-62.404 97.951-62.404 129.741 0 74.909 49.404 135.851 110.131 135.851s110.125-60.942 110.125-135.851c0-31.787-6.077-108.060-62.395-129.741-11.106-4.275-18.637-14.698-19.212-26.586-3.194-65.92 35.116-99.085 72.032-108.14 46.326-11.362 78.555-24.199 99.756-40.087-55.823-20.375-94.42-44.899-121.025-76.226-0.344-0.407-0.667-0.819-1.008-1.224h-316.568zM389.329 73.063c2.138 40.144 9.388 71.723 26.785 97.613 0.67 0.868 1.295 1.771 1.87 2.706 27.762 39.072 79.787 65.022 174.233 88.176 22.838 5.595 96.94 32.18 91.778 139.261-0.573 11.888-8.106 22.313-19.212 26.591-60.489 23.283-95.183 93.661-95.183 193.079 0 111.625 74.648 202.445 166.407 202.445s166.407-90.813 166.407-202.445c0-99.428-34.692-169.803-95.183-193.079-11.107-4.276-18.643-14.699-19.22-26.591-5.159-107.077 68.941-133.662 91.778-139.261 158.24-38.797 197.4-85.417 202.89-188.494h-693.354zM1094.38 219.168c-0.341 0.409-0.665 0.822-1.008 1.224-26.608 31.326-65.198 55.85-121.016 76.224 21.208 15.89 53.443 28.732 99.752 40.089 36.912 9.060 75.216 42.219 72.030 108.14-0.575 11.886-8.106 22.309-19.21 26.586-56.316 21.683-62.399 97.95-62.399 129.741 0 74.909 49.402 135.851 110.125 135.851 60.728 0 110.131-60.942 110.131-135.851 0-31.785-6.079-108.052-62.404-129.741-11.106-4.276-18.64-14.699-19.212-26.589-3.18-65.92 35.123-99.084 72.037-108.137 108.513-26.609 133.077-58.456 137.75-117.539h-316.571z" />
<glyph unicode="&#xc082;" glyph-name="website-protection" horiz-adv-x="1088" d="M1061.050 772.125h-306.499v165.872c0 12.152-9.852 22.002-22.002 22.002h-574.679c-12.152 0-22.002-9.85-22.002-22.002v-165.872h-108.919c-12.152 0-22.002-9.85-22.002-22.002v-792.121c0-12.152 9.85-22.002 22.002-22.002h1034.101c12.15 0 22.002 9.85 22.002 22.002v792.121c0 12.154-9.852 22.002-22.002 22.002zM1039.048 728.121v-105.78h-284.497v105.78h284.497zM710.547 577.301l-243.335-191.35v73.204l243.337 191.348v-73.202zM710.547 706.484l-243.335-191.348v73.202l243.337 191.353v-73.206zM467.212 644.319v73.204l243.337 191.35v-73.204l-243.337-191.35zM467.212 773.503v142.492h181.203l-181.203-142.492zM467.212 329.969l243.337 191.35v-73.204l-243.337-191.348v73.202zM179.873 915.996h243.335v-659.229l-243.335 191.348v467.88zM48.952-19.993v748.117h86.917v-290.695c0-6.748 3.095-13.125 8.401-17.296l287.339-225.951c3.991-3.14 8.794-4.708 13.602-4.708 4.805 0 9.61 1.571 13.602 4.708l287.341 225.951c5.304 4.173 8.401 10.547 8.401 17.296v140.911h284.495v-598.331h-990.096zM901.321 656.879h39.604c12.15 0 22.002 9.85 22.002 22.002 0 12.15-9.852 22.002-22.002 22.002h-39.604c-12.15 0-22.002-9.852-22.002-22.002 0-12.154 9.852-22.002 22.002-22.002z" />
<glyph unicode="&#xc083;" glyph-name="web-links" horiz-adv-x="1088" d="M1065.803 922.217h-1043.606c-12.264 0-22.204-9.941-22.204-22.204v-904.025c0-12.264 9.941-22.204 22.204-22.204h1043.606c12.261 0 22.204 9.941 22.204 22.204v904.025c0 12.264-9.943 22.204-22.204 22.204zM1043.599 877.808v-172.386h-999.197v172.386h999.197zM44.401 18.192v642.821h999.197v-642.821h-999.197zM120.842 769.411h213.162c12.261 0 22.204 9.941 22.204 22.204s-9.943 22.204-22.204 22.204h-213.162c-12.264 0-22.204-9.941-22.204-22.204s9.941-22.204 22.204-22.204zM432.358 769.411h50.189c12.261 0 22.204 9.941 22.204 22.204s-9.943 22.204-22.204 22.204h-50.189c-12.261 0-22.204-9.941-22.204-22.204s9.941-22.204 22.204-22.204zM822.923 445.5h-499.423l40.221 35.74c9.166 8.144 9.994 22.18 1.85 31.346-8.149 9.168-22.178 9.998-31.348 1.85l-83.891-74.543c-4.743-4.212-7.454-10.254-7.454-16.598s2.714-12.386 7.454-16.6l83.891-74.54c4.23-3.757 9.495-5.605 14.741-5.605 6.124 0 12.221 2.518 16.607 7.457 8.144 9.166 7.316 23.201-1.85 31.348l-40.218 35.738h499.421c12.261 0 22.204 9.941 22.204 22.204 0 12.261-9.941 22.202-22.204 22.202zM837.673 243.877l-83.891 74.54c-9.168 8.144-23.203 7.314-31.348-1.85-8.144-9.166-7.316-23.201 1.85-31.348l40.218-35.738h-499.425c-12.261 0-22.204-9.941-22.204-22.204s9.943-22.204 22.204-22.204h499.428l-40.221-35.74c-9.166-8.144-10.163-22.333-1.85-31.346 9.69-10.505 21.603-9.12 31.348-1.85 19.837 14.797 83.891 74.543 83.891 74.543 4.743 4.212 7.454 10.254 7.454 16.598s-2.712 12.386-7.454 16.6z" />
<glyph unicode="&#xc084;" glyph-name="web-link" horiz-adv-x="1152" d="M508.827 382.069h-35.343c-4.559 0-8.247-3.693-8.247-8.25v-42.288c0-14.111-11.475-25.59-25.588-25.59h-362.215c-14.109 0-25.59 11.479-25.59 25.59v232.939c0 14.111 11.483 25.59 25.59 25.59h362.215c14.113 0 25.588-11.48 25.588-25.59v-42.206c0-4.556 3.689-8.247 8.247-8.247h35.343c4.556 0 8.25 3.691 8.25 8.247v42.206c0 42.695-34.732 77.428-77.428 77.428h-362.215c-42.693 0-77.434-34.732-77.434-77.428v-232.941c0-42.695 34.741-77.428 77.434-77.428h362.215c42.695 0 77.428 34.732 77.428 77.428v42.288c-0.002 4.556-3.696 8.252-8.25 8.252zM1074.575 641.899h-362.209c-42.695 0-77.43-34.732-77.43-77.428v-42.206c0-4.556 3.691-8.247 8.247-8.247h35.341c4.556 0 8.25 3.691 8.25 8.247v42.206c0 14.111 11.483 25.59 25.596 25.59h362.212c14.113 0 25.588-11.48 25.588-25.59v-232.941c0-14.111-11.475-25.59-25.588-25.59h-362.215c-14.113 0-25.596 11.479-25.596 25.59v42.288c0 4.556-3.691 8.25-8.25 8.25h-35.341c-4.556 0-8.247-3.693-8.247-8.25v-42.288c0-42.695 34.737-77.428 77.43-77.428h362.212c42.695 0 77.426 34.732 77.426 77.428v232.941c0 42.697-34.729 77.428-77.426 77.428zM307.654 448.044c0-14.292 11.626-25.918 25.92-25.918h484.863c14.29 0 25.916 11.626 25.916 25.918s-11.626 25.918-25.916 25.918h-484.863c-14.292 0-25.92-11.626-25.92-25.918z" />
<glyph unicode="&#xc085;" glyph-name="web-home" horiz-adv-x="1152" d="M983.599-64h-308.041c-12.793 0-23.171 10.376-23.171 23.171v229.763h-152.774v-229.763c0-12.795-10.373-23.171-23.169-23.171h-308.043c-12.795 0-23.169 10.376-23.169 23.171v571.806c0 8.128 4.258 15.663 11.223 19.853l407.6 245.291c7.348 4.421 16.547 4.421 23.895 0l407.595-245.291c6.963-4.191 11.221-11.724 11.221-19.853v-571.808c0-12.793-10.376-23.169-23.169-23.169zM698.729-17.66h261.698v535.537l-384.427 231.347-384.429-231.347v-535.537h261.702v229.763c0 12.795 10.373 23.169 23.169 23.169h199.114c12.8 0 23.171-10.376 23.171-23.169v-229.763zM1121.632 585.286c-4.063 0-8.181 1.072-11.922 3.322l-533.709 321.182-533.711-321.182c-10.966-6.596-25.203-3.060-31.799 7.906-6.598 10.966-3.060 25.201 7.906 31.799l545.656 328.372c7.348 4.421 16.545 4.421 23.893 0l545.656-328.372c10.966-6.598 14.504-20.836 7.906-31.799-4.351-7.225-12.015-11.228-19.877-11.228z" />
<glyph unicode="&#xc086;" glyph-name="setting" d="M512.462 232.49c-118.025 0-214.045 96.469-214.045 215.046s96.020 215.048 214.045 215.048c118.023 0 214.045-96.471 214.045-215.048s-96.020-215.046-214.045-215.046zM512.462 620.789c-94.979 0-172.249-77.72-172.249-173.252s77.27-173.25 172.249-173.25 172.249 77.72 172.249 173.25c0 95.533-77.27 173.252-172.249 173.252zM538.189-64h-52.372c-51.367 0-93.161 41.959-93.163 93.535v82.457c-11.068 3.987-21.983 8.549-32.653 13.651l-57.954-58.253c-17.596-17.692-41.002-27.435-65.904-27.435-24.9-0.002-48.31 9.738-65.91 27.429l-37.033 37.228c-36.256 36.438-36.258 95.742-0.004 132.198l58.059 58.355c-5.103 10.771-9.669 21.797-13.655 32.981l-81.912 0.004c-24.908 0-48.31 9.741-65.906 27.429-17.569 17.655-27.247 41.131-27.247 66.096v52.646c0 51.566 41.788 93.525 93.151 93.535h81.918c3.987 11.189 8.551 22.212 13.651 32.979l-58.052 58.353c-17.569 17.657-27.249 41.133-27.249 66.098 0 24.961 9.676 48.437 27.245 66.098l37.035 37.226c17.577 17.669 40.985 27.399 65.912 27.399 24.923 0 48.329-9.728 65.908-27.395l57.956-58.255c10.666 5.097 21.581 9.661 32.651 13.646v82.461c-0.004 51.574 41.785 93.533 93.153 93.533h52.37c51.369 0 93.161-41.959 93.161-93.533v-82.461c11.070-3.987 21.985-8.551 32.651-13.651l57.956 58.255c17.584 17.692 40.991 27.439 65.902 27.439 24.906 0 48.316-9.745 65.916-27.441l37.027-37.211c36.256-36.442 36.258-95.748 0.008-132.205l-58.065-58.366c5.076-10.731 9.628-21.749 13.621-32.973l81.953-0.006c24.919 0 48.314-9.741 65.904-27.429 17.569-17.657 27.245-41.133 27.245-66.098l0.004-52.638c0-51.566-41.788-93.527-93.153-93.539h-81.951c-3.994-11.222-8.545-22.242-13.621-32.975l58.061-58.364c17.569-17.655 27.247-41.129 27.247-66.092 0-24.961-9.674-48.435-27.24-66.098l-37.037-37.228c-17.573-17.667-40.981-27.397-65.914-27.397-24.925 0-48.331 9.728-65.91 27.393l-57.956 58.257c-10.668-5.101-21.581-9.663-32.647-13.646l-0.006-82.468c0.008-24.95-9.665-48.425-27.24-66.092-17.6-17.69-41.004-27.433-65.908-27.435zM355.907 171.802c3.333 0 6.689-0.8 9.776-2.445 17.293-9.218 35.439-16.806 53.938-22.553 8.698-2.702 14.624-10.75 14.624-19.857v-97.412c0.002-28.643 23.136-51.944 51.574-51.944h52.368c13.755 0 26.691 5.39 36.427 15.178 9.764 9.816 15.141 22.869 15.136 36.755l0.006 97.428c0.002 9.107 5.927 17.155 14.626 19.857 18.493 5.745 36.636 13.331 53.923 22.547 8.094 4.311 18.056 2.819 24.526-3.684l68.6-68.953c9.711-9.761 22.649-15.138 36.425-15.138 13.78 0 26.718 5.377 36.429 15.138l37.035 37.228c9.761 9.816 15.138 22.875 15.138 36.77 0 13.893-5.377 26.948-15.141 36.76l-68.598 68.955c-6.416 6.449-7.895 16.321-3.651 24.367 9.097 17.243 16.637 35.497 22.415 54.264 2.685 8.723 10.748 14.672 19.874 14.672h96.952c28.434 0.006 51.57 23.312 51.57 51.95l-0.004 52.634c0 13.897-5.377 26.956-15.143 36.772-9.728 9.782-22.649 15.168-36.388 15.168l-96.99 0.008c-9.126 0.002-17.184 5.954-19.872 14.672-5.778 18.764-13.32 37.021-22.415 54.259-4.246 8.048-2.767 17.92 3.651 24.369l68.598 68.953c20.164 20.277 20.164 53.271-0.002 73.542l-37.029 37.211c-9.741 9.795-22.678 15.184-36.431 15.184-13.755 0-26.687-5.39-36.411-15.174l-68.61-68.961c-6.47-6.501-16.436-7.996-24.528-3.682-17.276 9.212-35.422 16.8-53.929 22.553-8.698 2.702-14.624 10.75-14.624 19.857v97.416c0 28.641-23.134 51.942-51.572 51.942h-52.37c-28.434 0-51.568-23.301-51.568-51.942v-97.414c0-9.107-5.927-17.155-14.624-19.859-18.507-5.749-36.653-13.337-53.933-22.549-8.094-4.311-18.056-2.819-24.524 3.684l-68.598 68.953c-9.711 9.761-22.647 15.138-36.423 15.138s-26.714-5.377-36.429-15.143l-37.033-37.223c-9.764-9.814-15.141-22.871-15.141-36.768 0.002-13.893 5.379-26.95 15.143-36.764l68.595-68.951c6.418-6.451 7.895-16.323 3.649-24.371-9.162-17.358-16.714-35.61-22.451-54.253-2.683-8.725-10.746-14.679-19.874-14.679h-96.914c-28.432-0.006-51.566-23.307-51.566-51.944v-52.646c0-13.895 5.377-26.95 15.141-36.764 9.736-9.784 22.666-15.174 36.408-15.174l96.931-0.004c9.128 0 17.191-5.956 19.874-14.679 5.73-18.624 13.283-36.879 22.453-54.255 4.246-8.048 2.767-17.92-3.651-24.371l-68.595-68.949c-20.164-20.275-20.167-53.267 0.002-73.536l37.031-37.228c9.736-9.787 22.674-15.174 36.427-15.174s26.687 5.39 36.419 15.176l68.6 68.953c4 4.021 9.339 6.127 14.746 6.127z" />
<glyph unicode="&#xc087;" glyph-name="news-grid" horiz-adv-x="1088" d="M1065.803 895.625h-1043.606c-12.264 0-22.204-9.943-22.204-22.204v-850.842c0-12.264 9.941-22.204 22.204-22.204h1043.606c12.261 0 22.204 9.941 22.204 22.204v850.842c0 12.261-9.943 22.204-22.204 22.204zM1043.599 851.216v-133.726h-999.197v133.726h999.197zM44.401 44.784v628.298h999.197v-628.298h-999.197zM346.564 561.362h-177.558c-12.261 0-22.204-9.941-22.204-22.204v-179.847c0-12.261 9.943-22.204 22.204-22.204h177.558c12.264 0 22.204 9.943 22.204 22.204v179.847c0 12.264-9.941 22.204-22.204 22.204zM324.359 381.515h-133.149v135.438h133.149v-135.438zM453.595 337.106h177.548c12.261 0 22.204 9.943 22.204 22.204v179.847c0 12.264-9.943 22.204-22.204 22.204h-177.548c-12.261 0-22.204-9.941-22.204-22.204v-179.847c0-12.264 9.943-22.204 22.204-22.204zM475.799 516.954h133.139v-135.438h-133.139v135.438zM738.188 337.106h177.558c12.264 0 22.204 9.943 22.204 22.204v179.847c0 12.264-9.941 22.204-22.204 22.204h-177.558c-12.264 0-22.204-9.941-22.204-22.204v-179.847c0-12.264 9.943-22.204 22.204-22.204zM760.393 516.954h133.149v-135.438h-133.149v135.438zM346.564 280.763h-177.558c-12.261 0-22.204-9.941-22.204-22.204s9.943-22.204 22.204-22.204h177.558c12.264 0 22.204 9.941 22.204 22.204 0 12.261-9.941 22.204-22.204 22.204zM346.564 198.607h-177.558c-12.261 0-22.204-9.941-22.204-22.204s9.943-22.204 22.204-22.204h177.558c12.264 0 22.204 9.941 22.204 22.204 0 12.261-9.941 22.204-22.204 22.204zM632.777 280.763h-177.55c-12.261 0-22.204-9.941-22.204-22.204s9.943-22.204 22.204-22.204h177.553c12.264 0 22.204 9.941 22.204 22.204-0.002 12.261-9.943 22.204-22.207 22.204zM632.777 198.607h-177.55c-12.261 0-22.204-9.941-22.204-22.204s9.943-22.204 22.204-22.204h177.553c12.264 0 22.204 9.941 22.204 22.204-0.002 12.261-9.943 22.204-22.207 22.204zM918.994 280.763h-177.558c-12.261 0-22.204-9.941-22.204-22.204s9.943-22.204 22.204-22.204h177.558c12.261 0 22.204 9.941 22.204 22.204 0 12.261-9.943 22.204-22.204 22.204zM918.994 198.607h-177.558c-12.261 0-22.204-9.941-22.204-22.204s9.943-22.204 22.204-22.204h177.558c12.261 0 22.204 9.941 22.204 22.204 0 12.261-9.943 22.204-22.204 22.204zM169.006 762.638h10.964c12.261 0 22.204 9.943 22.204 22.204s-9.943 22.204-22.204 22.204h-10.964c-12.261 0-22.204-9.943-22.204-22.204s9.943-22.204 22.204-22.204zM261.081 762.638h10.958c12.261 0 22.204 9.943 22.204 22.204s-9.941 22.204-22.204 22.204h-10.958c-12.261 0-22.204-9.943-22.204-22.204s9.943-22.204 22.204-22.204zM353.151 762.638h10.951c12.261 0 22.204 9.943 22.204 22.204s-9.943 22.204-22.204 22.204h-10.951c-12.261 0-22.204-9.943-22.204-22.204s9.941-22.204 22.204-22.204z" />
<glyph unicode="&#xc088;" glyph-name="desktop" horiz-adv-x="1152" d="M1054.898 248.654h-957.796c-30.475 0-55.257 24.783-55.257 55.257v497.317c0 30.475 24.783 55.257 55.257 55.257h957.796c30.475 0 55.257-24.783 55.257-55.257v-497.317c0-30.475-24.783-55.257-55.257-55.257zM97.102 819.648c-10.158 0-18.419-8.261-18.419-18.419v-497.317c0-10.158 8.261-18.419 18.419-18.419h957.796c10.158 0 18.419 8.261 18.419 18.419v497.317c0 10.158-8.261 18.419-18.419 18.419h-957.796zM704.934 39.514h-257.868c-10.168 0-18.419 8.252-18.419 18.419s8.252 18.419 18.419 18.419h257.868c10.168 0 18.419-8.252 18.419-18.419s-8.252-18.419-18.419-18.419zM631.257 55.253h-36.838v193.401h-36.838v-193.401h-36.838v230.24h110.515z" />
<glyph unicode="&#xc089;" glyph-name="news-list" horiz-adv-x="1216" d="M1191.19 893.224h-1166.381c-13.707 0-24.816-11.113-24.816-24.816v-840.814c0-13.707 11.111-24.816 24.816-24.816h1166.381c13.704 0 24.816 11.111 24.816 24.816v840.814c0 13.707-11.113 24.816-24.816 24.816zM1166.374 843.591v-155.418h-1116.747v155.418h1116.747zM49.626 52.412v586.128h1116.747v-586.13h-1116.747zM166.995 741.066h14.716c13.707 0 24.816 11.113 24.816 24.816s-11.111 24.816-24.816 24.816h-14.716c-13.704 0-24.816-11.113-24.816-24.816s11.111-24.816 24.816-24.816zM274.805 741.066h14.692c13.704 0 24.816 11.113 24.816 24.816s-11.113 24.816-24.816 24.816h-14.692c-13.704 0-24.816-11.113-24.816-24.816s11.113-24.816 24.816-24.816zM382.598 741.066h14.702c13.704 0 24.816 11.113 24.816 24.816s-11.113 24.816-24.816 24.816h-14.702c-13.704 0-24.816-11.113-24.816-24.816s11.111-24.816 24.816-24.816zM260.104 551.819h-93.102c-13.704 0-24.816-11.111-24.816-24.816s11.113-24.816 24.816-24.816h93.102c13.704 0 24.816 11.113 24.816 24.816s-11.113 24.816-24.816 24.816zM1048.998 551.819h-627.19c-13.704 0-24.816-11.111-24.816-24.816s11.113-24.816 24.816-24.816h627.193c13.704 0 24.816 11.113 24.816 24.816-0.002 13.704-11.113 24.816-24.82 24.816zM260.104 431.766h-93.102c-13.704 0-24.816-11.111-24.816-24.816s11.113-24.816 24.816-24.816h93.102c13.704 0 24.816 11.111 24.816 24.816s-11.113 24.816-24.816 24.816zM1048.998 431.766h-183.745c-13.704 0-24.816-11.111-24.816-24.816s11.113-24.816 24.816-24.816h183.745c13.704 0 24.816 11.111 24.816 24.816s-11.111 24.816-24.816 24.816zM786.854 382.134c13.704 0 24.816 11.111 24.816 24.816s-11.113 24.816-24.816 24.816h-164.154c-13.707 0-24.816-11.111-24.816-24.816s11.111-24.816 24.816-24.816h164.154zM421.808 382.134h95.549c13.704 0 24.816 11.111 24.816 24.816s-11.113 24.816-24.816 24.816h-95.549c-13.704 0-24.816-11.111-24.816-24.816s11.111-24.816 24.816-24.816zM260.104 311.719h-93.102c-13.704 0-24.816-11.113-24.816-24.816s11.113-24.816 24.816-24.816h93.102c13.704 0 24.816 11.113 24.816 24.816s-11.113 24.816-24.816 24.816zM1048.998 311.719h-627.19c-13.704 0-24.816-11.113-24.816-24.816s11.113-24.816 24.816-24.816h627.193c13.704 0 24.816 11.113 24.816 24.816s-11.113 24.816-24.82 24.816zM260.104 191.663h-93.102c-13.704 0-24.816-11.113-24.816-24.816s11.113-24.816 24.816-24.816h93.102c13.704 0 24.816 11.113 24.816 24.816s-11.113 24.816-24.816 24.816zM1048.998 191.663h-183.745c-13.704 0-24.816-11.113-24.816-24.816s11.113-24.816 24.816-24.816h183.745c13.704 0 24.816 11.113 24.816 24.816s-11.111 24.816-24.816 24.816zM786.854 191.663h-164.154c-13.707 0-24.816-11.113-24.816-24.816s11.111-24.816 24.816-24.816h164.154c13.704 0 24.816 11.113 24.816 24.816s-11.111 24.816-24.816 24.816zM517.357 191.663h-95.549c-13.704 0-24.816-11.113-24.816-24.816s11.113-24.816 24.816-24.816h95.549c13.704 0 24.816 11.113 24.816 24.816s-11.113 24.816-24.816 24.816z" />
<glyph unicode="&#xc090;" glyph-name="volume-on" horiz-adv-x="1088" d="M598.168-25.31c-4.356 0-8.698 1.279-12.439 3.81-76.135 51.467-142.302 100.801-206.29 148.51-61.964 46.2-125.981 93.932-198.885 143.441h-158.357c-12.264 0-22.204 9.943-22.204 22.204v310.69c0 12.261 9.941 22.204 22.204 22.204h158.366c149.983 101.831 401.771 289.45 404.328 291.357 6.734 5.023 15.725 5.809 23.23 2.047 7.508-3.768 12.248-11.449 12.248-19.847v-902.213c0-8.213-4.534-15.758-11.791-19.611-3.268-1.736-6.846-2.594-10.412-2.594zM44.401 314.857h142.968c4.432 0 8.764-1.328 12.437-3.81 76.092-51.443 142.224-100.75 206.179-148.436 53.639-39.994 108.828-81.141 169.977-123.588v815.959c-76.477-56.591-259.316-191.045-376.15-270.031-3.67-2.482-8.003-3.81-12.437-3.81h-142.974v-266.282zM734.47 381.088c-9.097 8.278-8.056 22.345 0.211 31.402 10.307 11.293 14.919 22.1 14.919 35.503 0 13.4-5.302 26.013-14.928 35.509-8.731 8.613-8.824 22.671-0.211 31.402 8.611 8.729 22.673 8.824 31.402 0.211 18.15-17.906 28.146-41.744 28.146-67.121s-9.426-49.802-28.138-67.115c-9.226-8.537-22.553-7.838-31.402 0.211zM854.219 271.856c-5.729 0-11.455 2.203-15.801 6.604-8.615 8.729-8.527 22.786 0.202 31.404 37.386 36.913 57.973 85.969 57.973 138.131 0 52.167-20.59 101.221-57.978 138.127-8.729 8.615-8.82 22.675-0.204 31.404 8.62 8.729 22.673 8.818 31.404 0.204 45.908-45.317 71.187-105.597 71.187-169.733 0-64.133-25.279-124.41-71.183-169.733-4.328-4.277-9.965-6.408-15.601-6.408zM958.162 169.24c-5.729 0-11.457 2.205-15.801 6.606-8.615 8.726-8.527 22.786 0.202 31.402 65.152 64.324 101.035 149.822 101.035 240.745 0 90.921-35.882 176.423-101.041 240.755-8.726 8.617-8.815 22.675-0.2 31.404 8.615 8.726 22.675 8.815 31.402 0.2 73.674-72.744 114.248-169.468 114.248-272.359 0-102.893-40.574-199.613-114.244-272.347-4.326-4.272-9.965-6.404-15.601-6.404z" />
<glyph unicode="&#xc091;" glyph-name="volume-off" horiz-adv-x="1088" d="M635.922 925.724c-7.24 3.634-15.911 2.87-22.409-1.973-2.602-1.938-258.909-192.925-411.354-296.405h-161.355c-11.828 0-21.419-9.592-21.419-21.421v-315.847c0-11.828 9.591-21.421 21.419-21.421h161.343c74.256-50.417 139.438-99.015 202.528-146.053 65.032-48.488 132.28-98.631 209.647-150.928 3.607-2.44 7.796-3.676 11.997-3.676 3.442 0 6.892 0.83 10.044 2.503 7 3.715 11.373 10.991 11.373 18.918v917.158c0.002 8.103-4.572 15.511-11.812 19.147zM604.896 30.045c-62.893 43.6-306.849 225.493-384.185 277.779-3.542 2.393-7.719 3.674-11.995 3.674h-146.493v273.007h146.506c4.276 0 8.454 1.281 11.995 3.676 119.69 80.914 307.561 219.125 384.172 275.827v-833.962zM905.824 610.787c-89.907 0-162.791-72.885-162.791-162.791s72.885-162.791 162.791-162.791 162.791 72.885 162.791 162.791-72.885 162.791-162.791 162.791zM905.824 329.469c-65.358 0-118.526 53.172-118.526 118.53 0 28.59 10.177 54.848 27.096 75.344l136.783-184.837c-13.98-5.813-29.294-9.037-45.352-9.037zM987.155 361.896l-139.912 189.074c17.293 9.877 37.282 15.554 58.583 15.554 65.358 0 118.526-53.168 118.526-118.523 0-33.891-14.317-64.478-37.196-86.104z" />
</font>
</defs>
</svg>
